2 сезон

iTunes

MVO

1

2 сезон

iTunes

iTunes

1 сезон

RePack

30

Новинка

ВАЖНО

ИГРА 18+

pack

RePack

MK11
pack

Легкие деньги

RePack

jed

RePack

fifa19

RePack

RDR2

RePack

NEED FOR SPEED™ PAYBACK

4 сезон

9 сезон

Бесстыжие 9 сезон

Все сериалы

все сериалы на PB.wtf

RePack

FAR CRY 5

Anonymous, добрый день, мы не успеваем собрать деньги на оплату серверов за декабрь и январь, помогите нам пожалуйста в это трудное время. В качестве благодарности мы отключим Вам всю рекламу на сайте (укажите свой ник в строку Ваше имя)!

×
  
Magnet ссылка

Склифосовский (Склиф) / Серии: 1 - 24 из 24 (Андрей Селиванов) [2012 г., драма, мелодрама, SATRip, MP4] pb.wtf

Склифосовский через торрент pb.wtf

Размер: 3.53 GB | Добавлен: 8 лет 3 мес. назад | Торрент скачан:69 раз
Скачать  

20-09-2012 06:25 Склифосовский Скачать торрент  

Склифосовский (Склиф)

Год выпуска: 2012
Страна: Россия
Жанр: драма, мелодрама
Продолжительность: 24 х ~ 00:42:22
Перевод: Не требуется
Режиссер: Андрей Селиванов

В ролях: Максим Аверин, Ольга Красько, Мария Кожевникова, Дмитрий Миллер, Евгений Галушко, Ольга Павловец, Екатерина Травова, Антон Эльдаров, Алёна Яковлева, Эммануил Виторган, Владимир Жеребцов, Лаура Кеосаян, Андриана Садковская, Александр Сетейкин, Руслан Ягудин, Анна Якунина, Игорь Петрусенко, Денис Давыдов, Серафима Низовская, Анна Кудасова, Юлия Маргулис, Кристина Кучеренко и другие.

Описание: Фильм о сложных, драматичных, подчас героических буднях врачей главного института скорой помощи — знаменитого «Склифа». Их работа — испытание на прочность, каждый день они дают кому-то вторую жизнь. В центре истории - непростые отношения хирурга Олега Брагина, блестящего врача, умного, жесткого и харизматичного, но давно отчаявшегося найти в жизни что-то настоящее, кроме работы, и начальницы Ларисы — сумевшей сквозь цинизм Брагина разглядеть потерянного в жизни и одинокого человека…

Качество: SATRip
Формат: MP4
Видео кодек: H.264
Аудио кодек: AAC
Видео: AVC, 320x176 (16/9), 25.000 fps, 360 Kbps (0.256 bit/pixel)
Аудио#1: AAC LC, 44.1 KHz, 2 ch, 96.0 Kbps, CBR Проверял на воспроизведение на этих телефонах: Samsung GT-S5230 La Fleur, Nokia Asha 302.
Complete name : D:\Sklifosovskyi.2012.mobil\Sklifosovskyi.01.2012.SATRip.mp4
Format : MPEG-4
Format profile : Base Media
Codec ID : isom
File size : 140 MiB
Duration : 42mn 22s
Overall bit rate : 462 Kbps
Writing application : Lavf54.25.104
Copyright : aleksd72
Video
ID : 1
Format : AVC
Format/Info : Advanced Video Codec
Format profile : Baseline@L3.0
Format settings, CABAC : No
Format settings, ReFrames : 1 frame
Codec ID : avc1
Codec ID/Info : Advanced Video Coding
Duration : 42mn 22s
Bit rate : 360 Kbps
Width : 320 pixels
Height : 176 pixels
Display aspect ratio : 1.85:1
Frame rate mode : Constant
Frame rate : 25.000 fps
Color space : YUV
Chroma subsampling : 4:2:0
Bit depth : 8 bits
Scan type : Progressive
Bits/(Pixel*Frame) : 0.256
Stream size : 109 MiB (78%)
Writing library : x264 core 125 r2208
Encoding settings : cabac=0 / ref=1 / deblock=1:0:0 / analyse=0x1:0x111 / me=hex / subme=5 / psy=1 / psy_rd=1.00:0.00 / mixed_ref=0 / me_range=16 / chroma_me=1 / trellis=1 / 8x8dct=0 / cqm=0 / deadzone=21,11 / fast_pskip=1 / chroma_qp_offset=0 / threads=3 / lookahead_threads=1 / sliced_threads=0 / nr=0 / decimate=1 / interlaced=0 / bluray_compat=0 / constrained_intra=0 / bframes=0 / weightp=0 / keyint=250 / keyint_min=25 / scenecut=40 / intra_refresh=0 / rc_lookahead=40 / rc=abr / mbtree=1 / bitrate=360 / ratetol=1.0 / qcomp=0.60 / qpmin=3 / qpmax=69 / qpstep=4 / vbv_maxrate=1500 / vbv_bufsize=1500 / nal_hrd=none / ip_ratio=1.40 / aq=1:1.00
Audio
ID : 2
Format : AAC
Format/Info : Advanced Audio Codec
Format profile : LC
Codec ID : 40
Duration : 42mn 22s
Duration_LastFrame : -19ms
Bit rate mode : Constant
Bit rate : 96.0 Kbps
Channel(s) : 2 channels
Channel positions : Front: L R
Sampling rate : 44.1 KHz
Compression mode : Lossy
Stream size : 29.1 MiB (21%)

pb.wtf



Скачать Склифосовский через торрент http://kartinko.org/image_library/originals/68349925.jpg Скачать фильм Склифосовский через торрент бесплантно в хорошем качестве Описание: Фильм о сложных, драматичных, подчас героических буднях врачей главного института скорой помощи — знаменитого «Склифа». Их работа ... 10 10 5
Info! Золотая раздача, скачанное не засчитывается.
Торрент: Зарегистрирован [2012-09-28 07:27] · скачан: 69 раз
Статус: √ проверено
Размер: 3.53 GB
Как cкачать? Как скачать Склифосовский через торрент | UTorrent

% Раздел Тема Автор DL S | L
Наши сериалы [ 89.19 GB ] Склифосовский / Склиф / Сезон: 1-7 / Серии: 1-144 из 144 [2012-2019 медицина HDTVRip WEB-DLRip WEBRip] bober100 Скачать
2 | 0
Наши сериалы [ 44.57 GB ] Склифосовский / Сезон: 7 / Серии: 1-16 из 16 [2019 медицина HDTV 1080i] bober100 Скачать
3 | 0
Наши сериалы [ 10.04 GB ] Склифосовский / Сезон: 7 / Серии: 1-16 из 16 [2019 медицина WEB-DLRip] bober100 Скачать
3 | 1
Наши сериалы [ 10.5 GB ] Склифосовский / Сезон: 7 / Серии: 1-16 из 16 [2019 SATRip-AVC] aleksan55 Скачать
1 | 0
Наши сериалы [ 11.26 GB ] Склифосовский / Сезон: 7 / Серии: 1-16 из 16 [2019 медицина SATRip] bober100 Скачать
1 | 0
Наши сериалы [ 10.41 GB ] Склифосовский / Сезон: 6 / Серии: 1-16 из 16 [2018 медицина WEB-DLRip] bober100 Скачать
2 | 1
Наши сериалы [ 9.88 GB ] Склифосовский / Сезон 6 / Серии: 1-16 из 16 [2017 SATRip-AVC] aleksan55 Скачать
1 | 0

28-11-2019 20:33  

Отключить всю рекламу на сайте

    Дорогой пользователь! Огромная просьба, поблагодарите релизера, оцените раздачу и оставьте свои комментарий, если Вы скачали Склифосовский через торрент бесплатно! Внесите свою лепту в развитие PiratBit!
    Комментировать посты могут только пользователи прошедшие не сложную регистрацию
    Показать сообщения:    

    Склифосовский через торрент
    Скачать бесплатно Склифосовский
    Склифосовский скачать торрент
    Склифосовский смотреть онлайн
    Cкачать фильм Склифосовский бесплатно
    Склифосовский скачать торрент в хорошем качестве
    Склифосовский смотреть онлайн бесплатно в хорошем качестве


    Вы не можете начинать темы
    Вы не можете отвечать на сообщения
    Вы не можете редактировать свои сообщения
    Вы не можете удалять свои сообщения
    Вы не можете голосовать в опросах
    Вы не можете прикреплять файлы к сообщениям
    Вы можете скачивать файлы