2 сезон

iTunes

MVO

1

2 сезон

iTunes

iTunes

1 сезон

RePack

30

Ultimate

ВАЖНО

ИГРА 18+

pack

RePack

MK11
pack

Легкие деньги

RePack

jed

RePack

fifa19

RePack

RDR2

RePack

NEED FOR SPEED™ PAYBACK

4 сезон

9 сезон

Бесстыжие 9 сезон

Все сериалы

все сериалы на PB.wtf

RePack

FAR CRY 5

Anonymous, добрый вечер, мы не успеваем собрать деньги на оплату серверов за декабрь и январь, помогите нам пожалуйста в это трудное время. В качестве благодарности мы отключим Вам всю рекламу на сайте (укажите свой ник в строку Ваше имя)!

×
  
Magnet ссылка

[Lady-Sonia] Lady Sonia (Hold My Panties While I Cum) [21.09.2012 г., Outdoors, Masturbation, Panties, Vibrator, SATRip] pb.wtf

через торрент pb.wtf

Размер: 271 MB | Добавлен: 8 лет 4 мес. назад | Торрент скачан:53 раза
Скачать  

21-09-2012 09:21 Скачать торрент  

[Lady-Sonia.com]
Lady Sonia
Hold My Panties While I Cum
[21.09.2012 г.]

Имя актрисы: Lady Sonia
Название ролика: Hold My Panties While I Cum
Номер на сайте: Lady-Sonia.com
Год производства: 2012 г.
Жанр: Outdoors, Masturbation, Panties, Vibrator
Продолжительность: 00:18:17

Качество: SATRip
Формат видео: MP4
Видео кодек: AVC
Аудио кодек: AAC
Видео: 25.000 fps, 1 976 Kbps, 720x404
Аудио: 96.0 Kbps, 2 channels, 48.0 KHz

Описание:
I have a little time before I need to be at the station to pick my husband up and
its a beautiful day so why don't we go out for a drive in the country and have a little fun?
I love to "flash" while I am out and about and I LOVE to undress and make myself cum outdoors...
The chance that I could get caught at any moment just makes me so VERY wet! I am wearing my tiny
little white see-through lace panties and I cant wait to show you! Then
I am going to take them off and hand my panties to you to hold
while you watch me make myself cum REALLY hard and loud!
General
Complete name : Hold My Panties While I Cum.mp4
Format : MPEG-4
Format profile : Base Media / Version 2
Codec ID : mp42
File size : 271 MiB
Duration : 18mn 17s
Overall bit rate : 2 073 Kbps
Encoded date : UTC 2012-09-06 07:18:18
Tagged date : UTC 2012-09-06 07:18:18
Writing library : AVS

Video
ID : 1
Format : AVC
Format/Info : Advanced Video Codec
Format profile : Baseline@L1.3
Format settings, CABAC : No
Format settings, ReFrames : 1 frame
Codec ID : avc1
Codec ID/Info : Advanced Video Coding
Duration : 18mn 17s
Bit rate : 1 976 Kbps
Width : 720 pixels
Height : 404 pixels
Display aspect ratio : 16:9
Frame rate mode : Constant
Frame rate : 25.000 fps
Color space : YUV
Chroma subsampling : 4:2:0
Bit depth : 8 bits
Scan type : Progressive
Bits/(Pixel*Frame) : 0.272
Stream size : 259 MiB (95%)
Language : English
Encoded date : UTC 2012-09-06 07:18:18
Tagged date : UTC 2012-09-06 07:18:18
Color primaries : BT.709
Transfer characteristics : BT.709
Matrix coefficients : BT.709

Audio
ID : 2
Format : AAC
Format/Info : Advanced Audio Codec
Format profile : LC
Codec ID : 40
Duration : 18mn 17s
Bit rate mode : Constant
Bit rate : 96.0 Kbps
Channel(s) : 2 channels
Channel positions : Front: L R
Sampling rate : 48.0 KHz
Compression mode : Lossy
Stream size : 12.2 MiB (4%)
Language : English
Encoded date : UTC 2012-09-06 07:18:18
Tagged date : UTC 2012-09-06 07:18:18
mdhd_Duration : 1097685
pb.wtf



pack Скачать через торрент http://i42.fastpic.ru/big/2012/0921/ca/1523f008f9664ceab74990da52f93eca.jpg Скачать фильм [Lady-Sonia] Lady Sonia через торрент бесплантно в хорошем качестве Описание:I have a little time before I need to be at the station to pick my husband up andits a beautiful day so why don't we go out for a ... 5 10 1
Info! Золотая раздача, скачанное не засчитывается.
Торрент: Зарегистрирован [2012-09-21 09:21] · скачан: 53 раз
Статус: √ проверено
Размер: 271 MB
Как cкачать? Как скачать через торрент | UTorrent

28-11-2019 20:33  

Отключить всю рекламу на сайте

    Дорогой пользователь! Огромная просьба, поблагодарите релизера, оцените раздачу и оставьте свои комментарий, если Вы скачали через торрент бесплатно! Внесите свою лепту в развитие PiratBit!
    Комментировать посты могут только пользователи прошедшие не сложную регистрацию
    Показать сообщения:    

    через торрент
    Скачать бесплатно
    скачать торрент
    смотреть онлайн
    Cкачать фильм бесплатно
    скачать торрент в хорошем качестве
    смотреть онлайн бесплатно в хорошем качестве


    Вы не можете начинать темы
    Вы не можете отвечать на сообщения
    Вы не можете редактировать свои сообщения
    Вы не можете удалять свои сообщения
    Вы не можете голосовать в опросах
    Вы не можете прикреплять файлы к сообщениям
    Вы можете скачивать файлы