Ссылка на приватное зеркало нашего сайта всего за 1$. Внимание количество ограничено!!!

2 сезон

iTunes

1 сезон

1

2 сезон

2 сезон

iTunes

1 сезон

RePack

30

Ultimate

ВАЖНО

ИГРА 18+

pack

RePack

MK11
pack

Забери бонус

RePack

jed

!!Акция!!

Alien_Rage

RePack

fifa19

RePack

Assassins Creed: Odyssey

RePack

NEED FOR SPEED™ PAYBACK

4 сезон

9 сезон

Бесстыжие 9 сезон

Все сериалы

все сериалы на PB.wtf

RePack

FAR CRY 5
  

Маша (Алексей Праздников) [2012, мелодрама, DVDRip] pb.wtf

Маша через торрент pb.wtf

Размер: 700 MB | Добавлен: 7 лет 8 мес. назад | Торрент скачан:18 раз
Скачать  

21-09-2012 10:39 Маша Скачать торрент  

Маша

Год выпуска: 2012
Страна: Россия / Грин-фильм
Жанр: мелодрама
Продолжительность: 01:29:20
Перевод: Не требуется (русский язык)
Субтитры: Нет

Режиссёр: Алексей Праздников

В ролях: Ольга Ломоносова, Евгений Пронин, Екатерина Васильева, Борис Смолкин, Алексей Мышинский...

Описание: Что такое женское счастье?.. Для Маши — сын и работа. Именно им она и посвятила свою жизнь, забыв про все остальное. Маша — старший научный сотрудник института Биологического Синтеза, кандидат химико-биологических наук и, одновременно, репетитор. Ее сын в выпускном классе и активно готовится к ЕГЭ, что приносит Маше лишь дополнительных переживаний: если сын провалит экзамен, то его заберут в армию. Вот в такой рутинной жизни Маши внезапно появляется Алексей… Жизнь Маши наполняется давно забытыми эмоциями и сердечными переживаниями. Но сын Миша воспринимает маминого возлюбленного «в штыки». Попытка Алексея объясниться с подростком приводит к безобразной драке, а позже Миша и вовсе пускается «во все тяжкие». Маша встает перед выбором: быть счастливой с Алексеем и пойти на охлаждение отношений с сыном, или посвятить еще несколько лет воспитанию подростка, забыв про свою любовь… Тонкое, атмосферное кино, отсылающее зрителя к «Осеннему марафону», расскажет о том, как важно не побояться вовремя прервать бег по замкнутому кругу и изменить жизненные приоритеты.

Сэмпл: http://multi-up.com/763571

Качество: DVDRip
Формат: AVI
Видео кодек: XviD
Аудио кодек: МР3
Видео: 688x384 (1.79:1), 25 fps, XviD build 50 ~958 kbps avg, 0.14 bit/pixel
Аудио: 48 kHz, MPEG Layer 3, 2 ch, ~128.00 kbps avg
Общее
Полное имя : E:\Masha.2012.DVDRip.700.avi
Формат : AVI
Формат/Информация : Audio Video Interleave
Размер файла : 700 Мбайт
Продолжительность : 1 ч. 29 м.
Общий поток : 1096 Кбит/сек
Программа кодирования : VirtualDubMod 1.5.10.3 | www.virtualdub-fr.org || (build 2550/release)
Библиотека кодирования : VirtualDubMod build 2550/release

Видео
Идентификатор : 0
Формат : MPEG-4 Visual
Профиль формата : Advanced Simple@L5
Параметр BVOP формата : 1
Параметр QPel формата : Нет
Параметр GMC формата : Без точки перехода
Параметр матрицы формата : Default (MPEG)
Идентификатор кодека : XVID
Идентификатор кодека/Подсказка : XviD
Продолжительность : 1 ч. 29 м.
Битрейт : 958 Кбит/сек
Ширина : 688 пикселей
Высота : 384 пикселя
Соотношение сторон : 16:9
Частота кадров : 25,000 кадров/сек
Цветовое пространство : YUV
Субдискретизация насыщенности : 4:2:0
Битовая глубина : 8 бит
Тип развёртки : Прогрессивная
Метод сжатия : С потерями
Бит/(Пиксели*Кадры) : 0.145
Размер потока : 612 Мбайт (87%)
Библиотека кодирования : XviD 1.2.1 (UTC 2008-12-04)

Аудио
Идентификатор : 1
Формат : MPEG Audio
Версия формата : Version 1
Профиль формата : Layer 3
Идентификатор кодека : 55
Идентификатор кодека/Подсказка : MP3
Продолжительность : 1 ч. 29 м.
Вид битрейта : Постоянный
Битрейт : 128 Кбит/сек
Каналы : 2 канала
Частота : 48,0 КГц
Метод сжатия : С потерями
Размер потока : 81,8 Мбайт (12%)
Выравнивание : Соединение по промежуткам
Продолжительность промежутка : 40 мс. (1,00 видеокадр)
Время предзагрузки промежутка : 504 мс.
Библиотека кодирования : LAME3.98r
Настройки программы : -m s -V 4 -q 2 -lowpass 17 -b 128
pb.wtf



Скачать Маша через торрент http://i42.fastpic.ru/big/2012/0921/e5/94ab47eeac6037d24dc5d4007f327de5.jpg Скачать фильм Маша через торрент бесплантно в хорошем качестве Описание: Что такое женское счастье?.. Для Маши — сын и работа. Именно им она и посвятила свою жизнь, забыв про все остальное. Маша — ... 10 10 1
Info! Золотая раздача, скачанное не засчитывается.
Торрент: Зарегистрирован [2013-03-25 16:31] · скачан: 18 раз
Статус: √ проверено
Размер: 700 MB
Как cкачать? Как скачать Маша через торрент | qTorrent

% Раздел Тема Автор DL S | L
Мультсериалы [ 8.26 GB ] Маша и медведь / Серии 01-78 из ?? [2009-2019 Россия мультфильм короткометражка BDRip-AVC WEB-DLRip-AVC от AVP Studio] AVP Studio Скачать
29 | 5
Рок, Панк, Альтернатива (mp3) [ 106 MB ] Маша Кудрявцева и группа Кудри - Люди и тени 2017 / MP3 / 320 kbps / RockArt Pop oleg8 Скачать
1 | 0
Мультсериалы [ 9.06 GB ] Маша и Медведь / Серии: 1-93 из ???? [2009-2020 РоссияСтудия "Анимаккорд" сказка детский WEB-DLRip-AVC] aleksan55 Скачать
2 | 0
T Фильмы [HD 720p, 1080p] (Звук Cam, VO, DVO) [ 4.21 GB ] Корпорация «Страх» / Fear Inc. [2016 BDRip 720p] VO PROCTOLOG Скачать
1 | 0
Мультсериалы [ 96 MB ] Маша и медведь: Есть контакт! [65] [2017 детский WEB-DLRip ] oleg8 Скачать
1 | 0
Мультсериалы [ 11.02 GB ] Маша и Медведь + Бонус [2009-2017 мультфильм DVDRip] МИХА~ Скачать
1 | 0
Мультсериалы [ 12.78 GB ] Маша и медведь+Машкини срашилки. [2017 Мультфильм Анимация Детский . BDRip 720р WEB-DLRip 720р Русский] uh25 Скачать
1 | 0

28-11-2019 20:33  

Отключить всю рекламу на сайте

    Дорогой пользователь! Огромная просьба, поблагодарите релизера, оцените раздачу и оставьте свои комментарий, если Вы скачали Маша через торрент бесплатно! Внесите свою лепту в развитие PiratBit!
    Комментировать посты могут только пользователи прошедшие не сложную регистрацию
    Показать сообщения:    

    Маша через торрент
    Скачать бесплатно Маша
    Маша скачать торрент
    Маша смотреть онлайн
    Cкачать фильм Маша бесплатно
    Маша скачать торрент в хорошем качестве
    Маша смотреть онлайн бесплатно в хорошем качестве


    Вы не можете начинать темы
    Вы не можете отвечать на сообщения
    Вы не можете редактировать свои сообщения
    Вы не можете удалять свои сообщения
    Вы не можете голосовать в опросах
    Вы не можете прикреплять файлы к сообщениям
    Вы можете скачивать файлы