новый адрес
Ссылка на приватное зеркало всего за 1$. Внимание количество ограничено!!!

iTunes

1+1

iTunes

мы

iTunes

1

iTunes

Чернобыль

iTunes

Ральф против интернета

Лицензия

ПШазам

Лицензия

Оно 2

Лицензия

30
pack

Вам бонус

ВАЖНО

!!Акция!!

Alien_RageХит недели

RePack

Resident Evil 21

ИГРА 18+

pack

RePack

jed

!!Акция!!

Alien_Rage

RePack

fifa19

RePack

Assassins Creed: Odyssey

RePack

NEED FOR SPEED™ PAYBACK

3 сезон

9 сезон

Бесстыжие 9 сезон

Все сериалы

все сериалы на PB.wtf

RePack

FAR CRY 5
Ребята, катастрофически не хватает 1900р. для оплаты серверов за Октябрь (всвязи с блокировками трафик упал в 3 раза), 1-2р., выручайте.
  

Кости / Bones / Сезон: 8 / серии: 4 из (26) (Иэн Тойнтон, Дэвид Бореаназ, Сэнфорд Букставер) [2012 г., драма, детектив, комедия, 720p WEB-DLRip, Любительский (многоголосый, закадровый)] BaibaKo pb.wtf

Кости через торрент pb.wtf

Размер: 5.84 GB | Добавлен: 7 лет назад | Торрент скачан:29 раз
Скачать  

21-09-2012 11:29 Кости Скачать торрент  

Кости / BonesГод выпуска: 2011-2012
Страна: США
Жанр: драма, детектив, комедия
Продолжительность: ~00:45:00
Перевод: Любительский (многоголосый, закадровый) /BaibaKo/


Режиссер: Иэн Тойнтон, Дэвид Бореаназ, Сэнфорд Букставер
Продюссер: Харт Хэнсон, Иэн Тойнтон, Джош Берман
Сценарий: Харт Хэнсон, Стефен Натан, Карла Кетнер






В ролях: Эмили Дешанель, Дэвид Бореаназ, Михаэлла Конлин, Ти-Джей Тайн, Тамара Тейлор, Эрик Миллеган, Джон Фрэнсис Дейли, Джонатан Адамс, Патриция Белчер, Дэвид Гринман



Описание: Сериал посвящен раскрытию преступлений, которые расследует специальный агент ФБР Сили Бут с помощью команды антропологов из Джефферсоновского института (аллюзия на Смитсоновский институт) под руководством доктора Темперанс Бреннан. Доктор Бреннан и её команда, как правило, получают дела, где от тела убитого остались только кости либо же сгнившие останки. Кроме преступлений в сериале также раскрываются личные взаимоотношения между основными персонажами, включая потенциальный роман между Бутом и Бреннан.
Литературной основой персонажей сериала является цикл детективных романов Кэти Райкс, главной героиней которых является доктор Бреннан. На настоящий момент опубликовано 12 книг. Следует иметь в виду отличия между персонажем книг и сериала: в книге доктор Темперанс — зрелая, уже разведенная женщина, имеющая взрослую дочь, и никаких загадочных родителей, в прошлом страдавшая от алкоголизма, живущая в Квебеке и, что самое важное, не обладающая таким хладнокровным, отстраненным, нетактичным и порой непонятным для окружающих характером.

Качество: 720p WEB-DLRip
Формат: MKV
Видео кодек: H.264
Аудио кодек: AC3
Видео: AVC ,1280x720, 3786 Кбит/сек, 23,976 кадра/сек
Аудио#1: RUS: AC3, 6 каналов, 48,0 КГц, 384 Кбит/сек, CBR
Аудио#2: ENG: AC3, 6 каналов, 48,0 КГц, 384 Кбит/сек, CBR



специально для
Перевод: Lub_a
Озвучка: Лира Грим, Светлана Доманова, Татьяна Оболевич, Марк Дэйвс и Алексей Кузнецов
Сведение: Vitall Digitall

Эпизод 01. The Future in the Past / Будущее в прошлом
Эпизод 02. The Partners in the Divorce / Партнеры в разводе
Эпизод 03 The Gunk in the Garage / Месиво в гараже
Эпизод 04 The Tiger In The Tale / История с тигром

E:ЗАГРУЗКАКости 8 сезон HD720p.WEB-DL.Rus-EnBones.s08e01.HD720p.WEB-DL.Rus-Eng.BaibaKo.tv.mkv
General
Complete name : E:ЗАГРУЗКАКости 8 сезон HD720p.WEB-DL.Rus-EnBones.s08e01.HD720p.WEB-DL.Rus-Eng.BaibaKo.tv.mkv
Format : Matroska
File size : 1.42 GiB
Duration : 43mn 49s
Overall bit rate : 4 647 Kbps
Movie name : BaibaKo.tv presents - Кости 8х01 Будущее в прошлом
Encoded date : UTC 2012-09-20 19:43:27
Writing application : mkvmerge v5.4.0 ('Piper') built on Mar 10 2012 13:34:39
Writing library : libebml v1.2.3 + libmatroska v1.3.0
Video #1
ID : 1
Format : AVC
Format/Info : Advanced Video Codec
Format profile :
Format settings, CABAC : No
Format settings, ReFrames : 2 frames
Muxing mode : Container profile=Unknown@3.1
Codec ID : V_MPEG4/ISO/AVC
Duration : 43mn 47s
Bit rate : 3 786 Kbps
Width : 1 280 pixels
Height : 720 pixels
Display aspect ratio : 16:9
Frame rate : 23.976 fps
Resolution : 8 bits
Colorimetry : 4:2:0
Scan type : Progressive
Bits/(Pixel*Frame) : 0.171
Stream size : 1.16 GiB (81%)
Color primaries : BT.709-5, BT.1361, IEC 61966-2-4, SMPTE RP177
Transfer characteristics : BT.709-5, BT.1361
Matrix coefficients : BT.709-5, BT.1361, IEC 61966-2-4 709, SMPTE RP177
Audio #2
ID : 2
Format : AC-3
Format/Info : Audio Coding 3
Codec ID : A_AC3
Duration : 43mn 49s
Bit rate mode : Constant
Bit rate : 384 Kbps
Channel(s) : 6 channels
Channel positions : Front: L C R, Surround: L R, LFE
Sampling rate : 48.0 KHz
Video delay : 27ms
Stream size : 120 MiB (8%)
Title : Rus BaibaKo.tv DD5.1
Language : Russian
Audio #3
ID : 3
Format : AC-3
Format/Info : Audio Coding 3
Codec ID : A_AC3
Duration : 43mn 49s
Bit rate mode : Constant
Bit rate : 384 Kbps
Channel(s) : 6 channels
Channel positions : Front: L C R, Surround: L R, LFE
Sampling rate : 48.0 KHz
Video delay : 27ms
Stream size : 120 MiB (8%)
Title : Eng DD5.1


Внимание! Раздача ведётся путём добавления новых серий; при каждом добавлении создётся новый торрент. Чтобы начать докачку новой серии, пользователям необходимо сделать следующее:
(1) остановить скачивание,
(2) удалить старый торрент у себя из клиента (старые серии удалять не надо),
(3) скачать новый торрент и запустить его у себя в клиенте вместо старого, при этом указать клиенту путь в старую папку куда и должно происходить скачивание новых серий.
Ваш клиент при этом должен произвести хеширование (проверку) старой папки (если не производит сам - помогите ему сделать это), и будет докачивать только те серии которых у вас ещё нет. Старые серии при этом не удаляются, а продолжают раздаваться!
Eсли вы уже удалили старые серии, то предотвратить повторную закачку старых серий можно, отжав галочку в соответсвующих местах при запуске нового торрента.

Добавлена 4 серия. pb.wtf



Скачать Кости через торрент http://pic.kartinco.top/images/1/gtec131jcc.png Скачать фильм Кости через торрент бесплантно в хорошем качестве Описание: Сериал посвящен раскрытию преступлений, которые расследует специальный агент ФБР Сили Бут с помощью команды антропологов из ... 7.7 10 3
Info! Золотая раздача, скачанное не засчитывается.
Торрент: Зарегистрирован [2012-11-03 17:50] · скачан: 29 раз
Статус: √ проверено
Размер: 5.84 GB
Как cкачать? Как скачать Кости через торрент | qTorrent



Последний раз редактировалось: lyokaa (2012-11-03 17:52), всего редактировалось 1 раз

03-11-2012 17:51 Кости Скачать торрент  

Новая серия выходит в Америке 6.11.2012, т.ч. ждем перевод не раньше 10-го наверное..pb.wtf



    Дорогой пользователь! Огромная просьба, поблагодарите релизера, оцените раздачу и оставьте свои комментарий, если Вы скачали Кости через торрент бесплатно! Внесите свою лепту в развитие PiratBit!
    Комментировать посты могут только пользователи прошедшие не сложную регистрацию
    Показать сообщения:    

    Кости через торрент
    Скачать бесплатно Кости
    Кости скачать торрент
    Кости смотреть онлайн
    Cкачать фильм Кости бесплатно
    Кости скачать торрент в хорошем качестве
    Кости смотреть онлайн бесплатно в хорошем качестве


    Вы не можете начинать темы
    Вы не можете отвечать на сообщения
    Вы не можете редактировать свои сообщения
    Вы не можете удалять свои сообщения
    Вы не можете голосовать в опросах
    Вы не можете прикреплять файлы к сообщениям
    Вы можете скачивать файлы