Ссылка на приватное зеркало нашего сайта всего за 1$. Внимание количество ограничено!!!

2 сезон

iTunes

1 сезон

1

iTunes

iTunes

iTunes

1 сезон

RePack

30

ИГРА 18+

pack

ВАЖНО

!!Акция!!

Alien_RageХит недели

RePack

MK11
pack

Забери бонус

RePack

jed

!!Акция!!

Alien_Rage

RePack

fifa19

RePack

Assassins Creed: Odyssey

RePack

NEED FOR SPEED™ PAYBACK

4 сезон

9 сезон

Бесстыжие 9 сезон

Все сериалы

все сериалы на PB.wtf

RePack

FAR CRY 5
  

Средь бела дня / The Cold Light of Day (Мабрук Эль Мекри) [2012, Боевик, триллер, BDRip (720p)] DUB лицензия pb.wtf

Средь бела дня через торрент pb.wtf

Размер: 3.63 GB | Добавлен: 8 лет 1 мес. назад | Торрент скачан:510 раз
Скачать  

21-09-2012 12:42 Средь бела дня Скачать торрент  

Средь бела дня / The Cold Light of Day Год выпуска: 2012
Страна: США
Жанр: Боевик, триллер
Продолжительность: 01:44:28
Перевод: Дублированный [Лицензия]
Субтитры: Нет
Режиссер: Мабрук Эль Мекри
В ролях: Генри Кавилл, Сигурни Уивер, Брюс Уиллис, Вероника Эчеги, Джозеф Моул, Кэролайн Гудолл, Рафи Гаврон, Эмма Хэмилтон, Майкл Бадд, Рошди Зем.
Описание: Испания, море, яхта — отпуск с поднадоевшей молодому Уиллу Шоу компанией родственников… Никто не мог предположить, что уже через несколько часов палуба яхты обагрится кровью, а члены семьи Шоу станут заложниками в руках неизвестных. В поисках родных Уилл невольно узнает о государственном заговоре и раскрывает тайны своего отца. У парня всего несколько часов, чтобы спасти семью и страну от гибели.



[font="Georgia"]Качество: BDRip (720p)
Формат: MKV
Видео кодек: H.264
Аудио кодек: АС3
Видео: H.264, 1280x544,(2,35:1), 24.0 fps, 5175 Kbps, 0.310 bit/pixel
Аудио 1: АС3, 48000 Hz, 6 ch, 384 Kbps - Dub
Уникальный идентификатор : 197083271309538651857561568945976520922 (0x9444DB7CF252BA0D91DAD903C67630DA)
Полное имя : F:\ФИЛЬМЫ ТОРРЕНТА\Sred.bela.dnya.2012.x264.BDRip.720p.mkv
Формат : Matroska
Версия формата : Version 1
Размер файла : 3,63 Гбайт
Продолжительность : 1 ч. 33 м.
Общий поток : 5558 Кбит/сек
Название фильма : Средь бела дня / The Cold Light of Day (2012) BDRip 720p - FiREBiT.ORG
Дата кодирования : UTC 2012-09-20 13:34:42
Программа кодирования : mkvmerge v2.3.0 ('Freak U') built on Sep 8 2008 18:32:16
Библиотека кодирования : libebml v0.7.7 + libmatroska v0.8.1

Видео
Идентификатор : 1
Формат : AVC
Формат/Информация : Advanced Video Codec
Профиль формата : High@L4.1
Параметр CABAC формата : Да
Параметр ReFrames формата : 12 кадров
Идентификатор кодека : V_MPEG4/ISO/AVC
Продолжительность : 1 ч. 33 м.
Битрейт : 5175 Кбит/сек
Ширина : 1280 пикселей
Высота : 544 пикселя
Соотношение сторон : 2,35:1
Частота кадров : 24,000 кадра/сек
Цветовое пространство : YUV
Субдискретизация насыщенности : 4:2:0
Битовая глубина : 8 бит
Тип развёртки : Прогрессивная
Бит/(Пиксели*Кадры) : 0.310
Размер потока : 3,31 Гбайт (91%)
Заголовок : http://firebit.org/
Библиотека кодирования : x264 core 125 r2208+677+33 3f970d9 tMod+MixAQ [8-bit@4:2:0 X86_64]
Настройки программы : cabac=1 / ref=12 / deblock=1:-3:-3 / analyse=0x3:0x113 / me=umh / subme=10 / psy=1 / fade_compensate=0.20 / psy_rd=1.10:0.10 / mixed_ref=1 / me_range=32 / chroma_me=1 / trellis=2 / 8x8dct=1 / cqm=0 / deadzone=21,11 / fast_pskip=0 / chroma_qp_offset=-3 / threads=12 / lookahead_threads=2 / sliced_threads=0 / nr=0 / decimate=1 / interlaced=0 / bluray_compat=0 / constrained_intra=0 / fgo=3 / bframes=6 / b_pyramid=2 / b_adapt=2 / b_bias=0 / direct=3 / weightb=1 / open_gop=0 / weightp=2 / keyint=360 / keyint_min=1 / scenecut=40 / intra_refresh=0 / rc_lookahead=240 / rc=2pass / mbtree=1 / bitrate=5175 / ratetol=1.0 / qcomp=0.60 / qpmin=0 / qpmax=69 / qpstep=4 / cplxblur=20.0 / qblur=0.5 / vbv_maxrate=40000 / vbv_bufsize=30000 / nal_hrd=none / ip_ratio=1.40 / aq=3 / aq-strength=1.10 / aq-sensitivity=10.00 / aq-ifactor=1.00 / aq-pfactor=1.00 / aq-bfactor=1.00 / aq2=0
Язык : English

Аудио
Идентификатор : 2
Формат : AC-3
Формат/Информация : Audio Coding 3
Расширение режима : CM (complete main)
Идентификатор кодека : A_AC3
Продолжительность : 1 ч. 33 м.
Вид битрейта : Постоянный
Битрейт : 384 Кбит/сек
Каналы : 6 каналов
Расположение каналов : Front: L C R, Side: L R, LFE
Частота : 48,0 КГц
Битовая глубина : 16 бит
Метод сжатия : С потерями
Размер потока : 257 Мбайт (7%)
Заголовок : http://firebit.org/
Язык : Russian

Текст
Идентификатор : 3
Формат : UTF-8
Идентификатор кодека : S_TEXT/UTF8
Идентификатор кодека/Информация : UTF-8 Plain Text
Заголовок : http://firebit.org/
Язык : English

скриншот   скриншот   скриншот   скриншот   скриншот   скриншот   скриншот  
pb.wtf



Скачать Средь бела дня через торрент http://i42.fastpic.ru/big/2012/0823/7b/0bf772ca3465f475eec96e450f9cd77b.jpg Скачать фильм Средь бела дня через торрент бесплантно в хорошем качестве Описание: Испания, море, яхта — отпуск с поднадоевшей молодому Уиллу Шоу компанией родственников… Никто не мог предположить, что уже через ... 9.5 10 2
Info! Золотая раздача, скачанное не засчитывается.
Торрент: Зарегистрирован [2012-09-21 12:42] · скачан: 510 раз
Статус: √ проверено
Размер: 3.63 GB
Как cкачать? Как скачать Средь бела дня через торрент | qTorrent

% Раздел Тема Автор DL S | L
Фильмы 2011 [ 2.18 GB ] Средь бела дня / The Cold Light of Day [2012 BDRip-AVC] DUB + Original + Sub [ лицензия ] potroks Скачать
1 | 0
Фильмы 2011 [ 1.45 GB ] Средь бела дня / The Cold Light of Day [2011 HDRip DUB лицензия]DUB lev1244v Скачать
1 | 0
Фильмы (Blu-ray, BD-Remux, HDDVD) [ 24.24 GB ] Средь бела дня / The Cold Light of Day [2012 BD-Remux DUB лицензия] Pavlin Скачать
1 | 0

28-11-2019 20:33  

Отключить всю рекламу на сайте

01-10-2012 12:39 Средь бела дня Скачать торрент  

фильмец хороший ! я качаю pb.wtf



    Дорогой пользователь! Огромная просьба, поблагодарите релизера, оцените раздачу и оставьте свои комментарий, если Вы скачали Средь бела дня через торрент бесплатно! Внесите свою лепту в развитие PiratBit!
    Комментировать посты могут только пользователи прошедшие не сложную регистрацию
    Показать сообщения:    

    Средь бела дня через торрент
    Скачать бесплатно Средь бела дня
    Средь бела дня скачать торрент
    Средь бела дня смотреть онлайн
    Cкачать фильм Средь бела дня бесплатно
    Средь бела дня скачать торрент в хорошем качестве
    Средь бела дня смотреть онлайн бесплатно в хорошем качестве


    Вы не можете начинать темы
    Вы не можете отвечать на сообщения
    Вы не можете редактировать свои сообщения
    Вы не можете удалять свои сообщения
    Вы не можете голосовать в опросах
    Вы не можете прикреплять файлы к сообщениям
    Вы можете скачивать файлы