1 сезон

3 сезон

iTunes

1

Line

MVO

iTunes

13

1 сезон

RePack

30

Deluxe

pack

Лицензия

ВАЖНО

ИГРА 18+

pack

RePack

MK11

RePack

jed

RePack

fifa19

RePack

RDR2

RePack

NEED FOR SPEED™ PAYBACK

4 сезон

9 сезон

Бесстыжие 9 сезон

Все сериалы

все сериалы на PB.wtf

RePack

FAR CRY 5

Anonymous, доброй ночи, мы катастрофически не успеваем собрать деньги на оплату серверов, помогите нам пожалуйста 5,10,15р., для нас важна любая помощь . В качестве благодарности мы отключим Вам всю рекламу на сайте (укажите свой ник в строку Ваше имя)!

×
  
Magnet ссылка

Побег / Retreat (Карл Тиббеттс) [2011 г., триллер, драма, DVD5, MVO, лицензия] pb.wtf

Побег через торрент pb.wtf

Размер: 4.34 GB | Добавлен: 8 лет 10 мес. назад | Торрент скачан:159 раз
Скачать  

22-09-2012 21:27 Побег Скачать торрент  

Побег / Retreat

Год выпуска: 2011
Страна: Великобритания
Жанр: триллер, драма
Продолжительность: 01:26:14
Перевод: Профессиональный (многоголосый, закадровый) [Лицензия]
  • Режиссер: Карл Тиббеттс
  • Продюссер: Гари Синьор, Саймон Кроу, Даррин Уэлш
  • Сценарий: Дженис Халлетт, Карл Тиббеттс
Лицам до 17 лет обязательно присутствие взрослого

В ролях: Киллиан Мёрфи, Джейми Белл, Тэнди Ньютон, Джимми Юилл, Marilyn Mantle

Описание: Журналистка Кейт и архитектор Мартин после личной трагедии отправляются пожить на уединенный остров. И все было прекрасно пока туда не попал окровавленный, полуживой человек в военной форме. Таинственный незнакомец приходит в сознание и рассказывает им, что на материке свирепствует смертельный вирус, уже выкосивший в Европе миллионы людей и теперь им нельзя покидать этот остров…
  • Качество: DVD5
  • Формат: DVD Video
  • Видео кодек: MPEG2
  • Аудио кодек: AC-3
  • Видео: MPEG 2, 720x576 (16:9), 25.000 fps, 9 800 Kbps (0.607 bit/pixel)
  • Аудио: AC-3, 48.0 KHz, 6 ch, 448 Kbps, CBR

Скриншоты меню

скриншот   скриншот  

Скриншоты

скриншот   скриншот   скриншот  

Код:

Title: Pobeg.2011.P.DVD.IRONCLUB
Size: 4.34 Gb ( 4 554 766,00 KBytes ) - DVD-5
Enabled regions: 1, 2, 3, 4, 5, 6, 7, 8

VTS_01 :
  Play Length: 00:00:10
  Video: PAL 4:3 (720x576) VBR
  Audio:
      Russian (Dolby AC3, 2 ch)

VTS_02 :
  Play Length: 01:26:14
  Video: PAL 16:9 (720x576) VBR, Auto Letterboxed
  Audio:
      Russian (Dolby AC3, 6 ch)

* Menus Information *

VIDEO_TS Menu
Video:
      PAL 4:3 (720x576) VBR
English Language Unit :
      Title Menu

VTS_01 Menu
Video:
      PAL 16:9 (720x576) VBR
      Auto Letterboxed
Audio:
      Not specified (Dolby AC3, 2 ch)
English Language Unit :
      Root Menu

VTS_02 Menu
Video:
      PAL 4:3 (720x576) VBR
English Language Unit :
      Root Menu


Код:

Общее
Полное имя                               : F:\PC Share\Pobeg.2011.P.DVD.IRONCLUB\VIDEO_TS\VTS_02_1.VOB
Формат                                   : MPEG-PS
Размер файла                             : 1024 Мбайт
Продолжительность                        : 20 м.
Режим общего битрейта                    : Переменный
Общий поток                              : 6876 Кбит/сек

Видео
Идентификатор                            : 224 (0xE0)
Формат                                   : MPEG Video
Версия формата                           : Version 2
Профиль формата                          : Main@Main
Параметр BVOP формата                    : Да
Параметр матрицы формата                 : Выборочная
Продолжительность                        : 20 м.
Вид битрейта                             : Переменный
Битрейт                                  : 6291 Кбит/сек
Максимальный битрейт                     : 9800 Кбит/сек
Ширина                                   : 720 пикселей
Высота                                   : 576 пикселей
Соотношение сторон                       : 16:9
Частота кадров                           : 25,000 кадров/сек
Стандарт вещания                         : PAL
Цветовое пространство                    : YUV
Субдискретизация насыщенности            : 4:2:0
Битовая глубина                          : 8 бит
Тип развёртки                            : Прогрессивная
Порядок развёртки                        : Верхнее поле первое
Метод сжатия                             : С потерями
Бит/(Пиксели*Кадры)                      : 0.607
Размер потока                            : 937 Мбайт (91%)

Аудио
Идентификатор                            : 189 (0xBD)-128 (0x80)
Формат                                   : AC-3
Формат/Информация                        : Audio Coding 3
Расширение режима                        : CM (complete main)
Параметр Endianness формата              : Big
Режим смешивания                         : DVD-Video
Продолжительность                        : 20 м.
Вид битрейта                             : Постоянный
Битрейт                                  : 448 Кбит/сек
Каналы                                   : 6 каналов
Расположение каналов                     : Front: L C R, Side: L R, LFE
Частота                                  : 48,0 КГц
Битовая глубина                          : 16 бит
Метод сжатия                             : С потерями
Размер потока                            : 66,7 Мбайт (7%)

Меню

pb.wtf



Скачать Побег через торрент https://pic1.kartinco.top/images/111/jbxrwfo3ur.png Скачать фильм Побег через торрент бесплантно в хорошем качестве Описание: Журналистка Кейт и архитектор Мартин после личной трагедии отправляются пожить на уединенный остров. И все было прекрасно пока ... 5 10 1
Info! Золотая раздача, скачанное не засчитывается.
Торрент: Зарегистрирован [2012-09-22 21:27] · скачан: 159 раз
Статус: √ проверено
Размер: 4.34 GB
Как cкачать? Как скачать Побег через торрент | UTorrent

% Раздел Тема Автор DL S | L
Фильмы 2011 [ 1.45 GB ] Побег / Retreat [2011 HDRip-AVC] DUB + Original + Sub potroks Скачать
1 | 0

28-11-2019 20:33  

Отключить всю рекламу на сайте

    Дорогой пользователь! Огромная просьба, поблагодарите релизера, оцените раздачу и оставьте свои комментарий, если Вы скачали Побег через торрент бесплатно! Внесите свою лепту в развитие PiratBit!
    Комментировать посты могут только пользователи прошедшие не сложную регистрацию
    Показать сообщения:    

    Побег через торрент
    Скачать бесплатно Побег
    Побег скачать торрент
    Побег смотреть онлайн
    Cкачать фильм Побег бесплатно
    Побег скачать торрент в хорошем качестве
    Побег смотреть онлайн бесплатно в хорошем качестве


    Вы не можете начинать темы
    Вы не можете отвечать на сообщения
    Вы не можете редактировать свои сообщения
    Вы не можете удалять свои сообщения
    Вы не можете голосовать в опросах
    Вы не можете прикреплять файлы к сообщениям
    Вы можете скачивать файлы