1 сезон

3 сезон

iTunes

1

Line

MVO

iTunes

13

1 сезон

RePack

30

Deluxe

pack

Лицензия

ВАЖНО

ИГРА 18+

pack

RePack

MK11

RePack

jed

RePack

fifa19

RePack

RDR2

RePack

NEED FOR SPEED™ PAYBACK

4 сезон

9 сезон

Бесстыжие 9 сезон

Все сериалы

все сериалы на PB.wtf

RePack

FAR CRY 5

Anonymous, доброе утро, мы катастрофически не успеваем собрать деньги на оплату серверов, помогите нам пожалуйста 5,10,15р., для нас важна любая помощь . В качестве благодарности мы отключим Вам всю рекламу на сайте (укажите свой ник в строку Ваше имя)!

×
  
Magnet ссылка

Параллельные миры / Upside Down (Хуан Диего Соланас / Juan Diego Solanas) [2012, фэнтези, мелодрама, DVD9] R5 pb.wtf

Параллельные миры через торрент pb.wtf

Размер: 7.67 GB | Добавлен: 8 лет 10 мес. назад | Торрент скачан:290 раз
Скачать  

22-09-2012 21:40 Параллельные миры Скачать торрент  


Параллельные миры / Upside Down
«Упасть, чтобы взлететь»
Страна: Канада, Франция
Студия: Jouror Productions, Onyx Films, Studio 37, Transfilm
Жанр: фэнтези, мелодрама
Год выпуска: 2012
Мировая премьера: 22 августа 2012
Российская премьера: 23 августа 2012
Дата выхода DVD: 27 сентября 2012
Дата выхода Blu-Ray: 27 сентября 2012
Продолжительность: 01:43:28
Перевод: Профессиональный (дублированный) [Лицензия]
Cубтитры: нет
Оригинальная аудиодорожка: нет
Режиссер: Хуан Диего Соланас / Juan Diego Solanas
В ролях: Кирстен Данст, Джим Стёрджесс, Нил Напье, Стелла Маив, Джэйн Хейтмейер, Ларри Дэй, Джон МакЛарен, Дон Джордан, Холли О’Брайэн
Описание: Однажды, несколько тысяч лет тому назад, две планеты притянулись друг к другу. Там правили мир и гармония. Но стоило верхнему миру обрести уверенность и Влacть, как между планетами началось противостояние. Казалось, ничто не может примирить параллельные миры.
Она — дочь президента верхнего мира. Эта хрупкая девушка с сильным характером и не подозревала, что душа ее способна любить. Он — ее половина. Их встреча была предопределена свыше, их судьбы переплелись воедино. Сможет ли Он, вопреки законам физики своего мира, быть вместе со своей любимой?

Бонусы: нет

Качество: DVD9 R5
Формат: DVD-Video
Видео кодек: MPEG2
Аудио кодек: AC3
Видео: PAL 16:9 (720x576(0.900)) MPEG Video, 25,000 кадр/сек, 9000 Кбит/сек
Аудио: Russian (Dolby AC3, 6 ch) 448 Кбит/сек, 48,0 КГц



Title: Paralellnie.miry.2012.DVD9
Size: 7.67 Gb ( 8 038 734,00 KBytes ) - DVD-9
Enabled regions: 1, 2, 3, 4, 5, 6, 7, 8

VTS_01 :
Play Length: 01:43:28
Video: PAL 16:9 (720x576) VBR, Auto Letterboxed
Audio:
Russian (Dolby AC3, 6 ch)

* Menus Information *

VIDEO_TS Menu
Video:
PAL 16:9 (720x576) VBR
Auto Letterboxed
Audio:
Not specified (Dolby AC3, 2 ch)
Russian Language Unit :
Title Menu

VTS_01 Menu
Video:
PAL 16:9 (720x576) VBR
Auto Letterboxed
Audio:
Not specified (Dolby AC3, 2 ch)
Russian Language Unit :
Root Menu
Общее
Полное имя : J:\Новинки 2012\Paralellnie.miry.2012.DVD9\VIDEO_TS\VTS_01_1.VOB
Формат : MPEG-PS
Размер файла : 1024 Мбайт
Продолжительность : 14 м.
Общий поток : 9981 Кбит/сек

Видео
Идентификатор : 224 (0xE0)
Формат : MPEG Video
Версия формата : Version 2
Профиль формата : Main@Main
Параметр BVOP формата : Да
Параметр матрицы формата : Выборочная
Параметр GOP формата : M=3, N=15
Продолжительность : 14 м.
Битрейт : 9334 Кбит/сек
Максимальный битрейт : 9000 Кбит/сек
Ширина : 720 пикселей
Высота : 576 пикселей
Соотношение сторон : 16:9
Частота кадров : 25,000 кадров/сек
Стандарт вещания : PAL
Цветовое пространство : YUV
Субдискретизация насыщенности : 4:2:0
Битовая глубина : 8 бит
Тип развёртки : Чересстрочная
Порядок развёртки : Верхнее поле первое
Метод сжатия : С потерями
Бит/(Пиксели*Кадры) : 0.900
Размер потока : 957 Мбайт (94%)

Аудио
Идентификатор : 189 (0xBD)-128 (0x80)
Формат : AC-3
Формат/Информация : Audio Coding 3
Расширение режима : CM (complete main)
Параметр Endianness формата : Big
Режим смешивания : DVD-Video
Продолжительность : 14 м.
Вид битрейта : Постоянный
Битрейт : 448 Кбит/сек
Каналы : 6 каналов
Расположение каналов : Front: L C R, Side: L R, LFE
Частота : 48,0 КГц
Битовая глубина : 16 бит
Метод сжатия : С потерями
Задержка видео : -80 мс.
Размер потока : 45,9 Мбайт (4%)










pb.wtf



Скачать Параллельные миры через торрент http://i43.fastpic.ru/big/2012/0922/0b/248b8f56a24bd0b31aa42113032df90b.jpg Скачать фильм Параллельные миры через торрент бесплантно в хорошем качестве Описание: Однажды, несколько тысяч лет тому назад, две планеты притянулись друг к другу. Там правили мир и гармония. Но стоило верхнему ... 5 10 1
Info! Золотая раздача, скачанное не засчитывается.
Торрент: Зарегистрирован [2012-09-22 21:40] · скачан: 290 раз
Статус: √ проверено
Размер: 7.67 GB
Как cкачать? Как скачать Параллельные миры через торрент | UTorrent

28-11-2019 20:33  

Отключить всю рекламу на сайте

23-09-2012 20:06 Параллельные миры Скачать торрент  

Когда в с блю рея будет ? Буду в мкv ждатьpb.wtf



    Дорогой пользователь! Огромная просьба, поблагодарите релизера, оцените раздачу и оставьте свои комментарий, если Вы скачали Параллельные миры через торрент бесплатно! Внесите свою лепту в развитие PiratBit!
    Комментировать посты могут только пользователи прошедшие не сложную регистрацию
    Показать сообщения:    

    Параллельные миры через торрент
    Скачать бесплатно Параллельные миры
    Параллельные миры скачать торрент
    Параллельные миры смотреть онлайн
    Cкачать фильм Параллельные миры бесплатно
    Параллельные миры скачать торрент в хорошем качестве
    Параллельные миры смотреть онлайн бесплатно в хорошем качестве


    Вы не можете начинать темы
    Вы не можете отвечать на сообщения
    Вы не можете редактировать свои сообщения
    Вы не можете удалять свои сообщения
    Вы не можете голосовать в опросах
    Вы не можете прикреплять файлы к сообщениям
    Вы можете скачивать файлы