Ссылка на приватное зеркало нашего сайта всего за 1$. Внимание количество ограничено!!!

2 сезон

iTunes

1 сезон

1

iTunes

iTunes

iTunes

1 сезон

RePack

30

ИГРА 18+

pack

ВАЖНО

!!Акция!!

Alien_RageХит недели

RePack

MK11
pack

Забери бонус

RePack

jed

!!Акция!!

Alien_Rage

RePack

fifa19

RePack

Assassins Creed: Odyssey

RePack

NEED FOR SPEED™ PAYBACK

4 сезон

9 сезон

Бесстыжие 9 сезон

Все сериалы

все сериалы на PB.wtf

RePack

FAR CRY 5
  

Засада / Stuck (Стюарт Гордон) [2007 г., триллер, драма, комедия, BD-Remux, MVO, ] pb.wtf

Засада через торрент pb.wtf

Размер: 13.35 GB | Добавлен: 8 лет 1 мес. назад | Торрент скачан:19 раз
Скачать  

23-09-2012 09:22 Засада Скачать торрент  

Засада / Stuck

Год выпуска: 2007
Страна: Канада
Жанр: триллер, драма, комедия
Продолжительность: 01:25:21
Перевод: Профессиональный многоголосый
Субтитры: Русские, английские
Режиссер: Стюарт Гордон
Продюссер: Джей Файастоун, Кен Горд, Стюарт Гордон
Сценарий: John Strysik, Стюарт Гордон
Бюджет: $5 000 000
Премьера в мире: 21 мая 2007
лицам до 17 лет обязательно присутствие взрослого
Мировой рейтинг IMDB 6.60 (6 429)

В ролях: Мена Сувари, Стивен Ри, Расселл Хорнсби, Рукия Бернард, Кэролин Пёрди-Гордон, Лайонел Марк Смит, Уэйн Робсон, Р.Д. Рейд, Патрик МакКенна, Шарлин Ройер
Описание: Автомобиль Бренди потерял управление и она сбила бомжа, влетевшего прямо в лобовое стекло автомобиля. Опасаясь из-за этого инцендента потерять повышение по службе, она старается скрыть происшедшее и не оказывая ему никакой помощи, просто оставляет еще живого человека умирать в своем гараже. Но в скоре она понимает, что связана с пленником в кровавом... даже возмутительном сражении за выживание...
Качество: BD-Remux
Формат: BDMV
Видео кодек: AVC
Аудио кодек: AC3
Видео: AVC at 18,8 Мбит/сек : 1920 x 1080 (1.778) at 23.976 fps
Аудио#1: AC-3 at 448 Кбит/сек : 6 каналов, 48,0 КГц Language : Русский
Аудио#2: DTS at 2047 Кбит/сек / 1510 Кбит/сек : 6 каналов, 48,0 КГц Language: английский
Аудио#3: AC-3 at 224 Кбит/сек : 2 канала, 48,0 КГц Language : английский
Общее
Идентификатор : 1 (0x1)
Полное имя : D:\Zasada.2007.BDRemux.1080p.HDTracker\BDMV\STREAM\00000.m2ts
Формат : BDAV
Формат/Информация : Blu-ray Video
Размер файла : 13,3 Гбайт
Продолжительность : 1 ч. 25 м.
Режим общего битрейта : Переменный
Общий поток : 22,4 Мбит/сек
Максимальный общий битрейт : 35,5 Мбит/сек

Видео
Идентификатор : 4113 (0x1011)
Идентификатор меню : 1 (0x1)
Формат : AVC
Формат/Информация : Advanced Video Codec
Профиль формата : High@L4.1
Параметр CABAC формата : Да
Параметр ReFrames формата : 4 кадра
Идентификатор кодека : 27
Продолжительность : 1 ч. 25 м.
Вид битрейта : Переменный
Битрейт : 18,8 Мбит/сек
Максимальный битрейт : 27,0 Мбит/сек
Ширина : 1920 пикселей
Высота : 1080 пикселей
Соотношение сторон : 16:9
Частота кадров : 23,976 кадра/сек
Стандарт вещания : NTSC
Цветовое пространство : YUV
Субдискретизация насыщенности : 4:2:0
Битовая глубина : 8 бит
Тип развёртки : Прогрессивная
Бит/(Пиксели*Кадры) : 0.377
Размер потока : 11,2 Гбайт (84%)
Основные цвета : BT.709
Характеристики трансфера : BT.709
Коэффициенты матрицы : BT.709

Аудио #1
Идентификатор : 4352 (0x1100)
Идентификатор меню : 1 (0x1)
Формат : DTS
Формат/Информация : Digital Theater Systems
Профиль формата : HRA / Core
Режим смешивания : Stream extension
Идентификатор кодека : 133
Продолжительность : 1 ч. 25 м.
Вид битрейта : Постоянный
Битрейт : 2047 Кбит/сек / 1510 Кбит/сек
Каналы : 6 каналов
Расположение каналов : Front: L C R, Side: L R, LFE
Частота : 48,0 КГц
Битовая глубина : 16 бит / 24 бит
Метод сжатия : С потерями
Размер потока : 1,22 Гбайт (9%)
Язык : English

Аудио #2
Идентификатор : 4353 (0x1101)
Идентификатор меню : 1 (0x1)
Формат : AC-3
Формат/Информация : Audio Coding 3
Расширение режима : CM (complete main)
Параметр Endianness формата : Big
Идентификатор кодека : 129
Продолжительность : 1 ч. 25 м.
Вид битрейта : Постоянный
Битрейт : 448 Кбит/сек
Каналы : 6 каналов
Расположение каналов : Front: L C R, Side: L R, LFE
Частота : 48,0 КГц
Битовая глубина : 16 бит
Метод сжатия : С потерями
Размер потока : 273 Мбайт (2%)
Язык : Russian

Аудио #3
Идентификатор : 4354 (0x1102)
Идентификатор меню : 1 (0x1)
Формат : AC-3
Формат/Информация : Audio Coding 3
Расширение режима : CM (complete main)
Параметр Endianness формата : Big
Идентификатор кодека : 129
Продолжительность : 1 ч. 25 м.
Вид битрейта : Постоянный
Битрейт : 224 Кбит/сек
Каналы : 2 канала
Расположение каналов : Front: L R
Частота : 48,0 КГц
Битовая глубина : 16 бит
Метод сжатия : С потерями
Размер потока : 137 Мбайт (1%)
Язык : English

Текст #1
Идентификатор : 4608 (0x1200)
Идентификатор меню : 1 (0x1)
Формат : PGS
Идентификатор кодека : 144
Язык : English

Текст #2
Идентификатор : 4609 (0x1201)
Идентификатор меню : 1 (0x1)
Формат : PGS
Идентификатор кодека : 144
Задержка видео : 14 с.
Язык : Russian

pb.wtf



Скачать Засада через торрент http://i2.fastpic.ru/big/2010/0302/b7/ca2be6577ed1076f0df67fa621ffc0b7.jpg Скачать фильм Засада через торрент бесплантно в хорошем качестве Описание: Автомобиль Бренди потерял управление и она сбила бомжа, влетевшего прямо в лобовое стекло автомобиля. Опасаясь из-за этого ... 5 10 1
Info! Золотая раздача, скачанное не засчитывается.
Торрент: Зарегистрирован [2012-09-23 09:22] · скачан: 19 раз
Статус: √ проверено
Размер: 13.35 GB
Как cкачать? Как скачать Засада через торрент | qTorrent

% Раздел Тема Автор DL S | L
Фильмы 2006-2008 [ 1.09 GB ] Засада / Stuck [2007 DVDRip MVO] lev1244v Скачать
1 | 0
Фильмы 2006-2008 [ 1.46 GB ] Засада / Stuck [2007 DVDRip] MVO + Sub -=Cherry=- Скачать
1 | 0

28-11-2019 20:33  

Отключить всю рекламу на сайте

    Дорогой пользователь! Огромная просьба, поблагодарите релизера, оцените раздачу и оставьте свои комментарий, если Вы скачали Засада через торрент бесплатно! Внесите свою лепту в развитие PiratBit!
    Комментировать посты могут только пользователи прошедшие не сложную регистрацию
    Показать сообщения:    

    Засада через торрент
    Скачать бесплатно Засада
    Засада скачать торрент
    Засада смотреть онлайн
    Cкачать фильм Засада бесплатно
    Засада скачать торрент в хорошем качестве
    Засада смотреть онлайн бесплатно в хорошем качестве


    Вы не можете начинать темы
    Вы не можете отвечать на сообщения
    Вы не можете редактировать свои сообщения
    Вы не можете удалять свои сообщения
    Вы не можете голосовать в опросах
    Вы не можете прикреплять файлы к сообщениям
    Вы можете скачивать файлы