Ссылка на приватное зеркало всего за 1$. Внимание количество ограничено!!!

iTunes

iTunes

iTunes

1

iTunes

iTunes

iTunes

iTunes

iTunes

30
pack

$ от Little Big

ВАЖНО

!!Акция!!

Alien_RageХит недели

RePack

Resident Evil 21

ИГРА 18+

pack

RePack

jed

!!Акция!!

Alien_Rage

RePack

fifa19

RePack

Assassins Creed: Odyssey

RePack

NEED FOR SPEED™ PAYBACK

4 сезон

9 сезон

Бесстыжие 9 сезон

Все сериалы

все сериалы на PB.wtf

RePack

FAR CRY 5
  

Детонатор / Primer (Шэйн Кэррат) [2004 г., фантастика, триллер, драма, HDTVRip 720p, Профессиональный двухголосый] pb.wtf

Детонатор через торрент pb.wtf

Раздают: 1 [ 0 KB/s ]
Размер: 4.58 GB | Добавлен: 7 лет 9 мес. назад | Торрент скачан:278 раз
Скачать  

23-09-2012 18:26 Детонатор Скачать торрент  

Детонатор / Primer
Год выпуска: 2004
Страна: США
Жанр: фантастика, триллер, драма
Продолжительность: 01:17:14
Перевод: Профессиональный (двухголосый закадровый)
Cубтитры: английские
Режиссер: Шэйн Кэррат
Продюссер: Шэйн Кэррат
Сценарий: Шэйн Кэррат
Бюджет: $7 000
Премьера в мире: 16 января 2004
детям до 13 лет просмотр не желателен
Мировой рейтинг IMDB 6.90 (30 658)

В ролях: Шэйн Кэррат, Дэвид Салливан, Кэйси Гуден, Anand Upadhyaya, Кэрри Кроуфорд, Джей Батлер, Джон Кэррат, Хуан Тапия, Эшли Уоррен, Саманта Томсон
Описание: Эйб и Аарон с друзьями в небольшом гараже мастерят нечто, способное перевернуть представление мира о времени и пространстве. В результате, получается что-то, отдаленно похожее на машину времени. Результаты изобретения сулят неведомые возможности и манят головокружительными перспективами. Не скоро гениальные товарищи поймут, что у экспериментов со временем есть опасный побочный эффект...
Качество: HDTVRip 720p
Формат: MKV
Видео кодек: H.264x
Видео: AVC; 1280x720 (16:9); 23.976 fps; 7719 Kbps; 0.349 bpp
Аудио#1: Russian; AC3; 5.1 ch; 48.0 KHz; 384 Kbps
Аудио#2: English; AC3; 2.0 ch; 48.0 KHz; 384 Kbps

Format : Matroska
File size : 4.58 GiB
Duration : 1h 17mn
Overall bit rate : 8 487 Kbps
Encoded date : UTC 2011-01-30 20:52:08
Writing application : mkvmerge v4.4.0 ('Die Wiederkehr') built on Oct 31 2010 21:52:48
Writing library : libebml v1.0.0 + libmatroska v1.0.0

Video
ID : 1
Format : AVC
Format/Info : Advanced Video Codec
Format profile : High@L5.1
Format settings, CABAC : Yes
Format settings, ReFrames : 16 frames
Muxing mode : Container profile=Unknown@5.1
Codec ID : V_MPEG4/ISO/AVC
Duration : 1h 17mn
Bit rate : 7 719 Kbps
Width : 1 280 pixels
Height : 720 pixels
Display aspect ratio : 16:9
Frame rate : 23.976 fps
Color space : YUV
Chroma subsampling : 4:2:0
Bit depth : 8 bits
Scan type : Progressive
Bits/(Pixel*Frame) : 0.349
Stream size : 4.07 GiB (89%)
Writing library : x264 core 59 r826M 138601d
Encoding settings : cabac=1 / ref=16 / deblock=1:-2:-1 / analyse=0x3:0x113 / me=esa / subme=7 / me-prepass=0 / brdo=1 / mixed_ref=1 / me_range=16 / chroma_me=1 / trellis=2 / 8x8dct=1 / cqm=2 / deadzone=21,11 / chroma_qp_offset=0 / threads=6 / nr=0 / decimate=0 / mbaff=0 / bframes=16 / b_pyramid=1 / b_adapt=1 / b_bias=0 / direct=3 / wpredb=1 / bime=1 / keyint=250 / keyint_min=25 / scenecut=40(pre) / rc=2pass / bitrate=7719 / ratetol=1.0 / rceq='blurCplx^(1-qComp)' / qcomp=1.00 / qpmin=10 / qpmax=51 / qpstep=4 / cplxblur=20.0 / qblur=0.5 / ip_ratio=1.40 / pb_ratio=1.30 / aq=2:1.00

Audio #1
ID : 2
Format : AC-3
Format/Info : Audio Coding 3
Format profile : Dolby Digital
Mode extension : CM (complete main)
Codec ID : A_AC3
Duration : 1h 17mn
Bit rate mode : Constant
Bit rate : 384 Kbps
Channel(s) : 2 channels
Channel positions : Front: L R
Sampling rate : 48.0 KHz
Stream size : 212 MiB (5%)
Title : English

Audio #2
ID : 3
Format : AC-3
Format/Info : Audio Coding 3
Mode extension : CM (complete main)
Codec ID : A_AC3
Duration : 1h 17mn
Bit rate mode : Constant
Bit rate : 384 Kbps
Channel(s) : 6 channels
Channel positions : Front: L C R, Side: L R, LFE
Sampling rate : 48.0 KHz
Video delay : 27ms
Stream size : 212 MiB (5%)
Title : Russian
Language : Russian

Text
ID : 4
Format : UTF-8
Codec ID : S_TEXT/UTF8
Codec ID/Info : UTF-8 Plain Text
Title : English subtitles

pb.wtf



Скачать Детонатор через торрент http://i4.fastpic.ru/big/2011/0131/71/f7297650aec7a8ec634e63f4a34c4c71.jpg Скачать фильм Детонатор через торрент бесплантно в хорошем качестве Описание: Эйб и Аарон с друзьями в небольшом гараже мастерят нечто, способное перевернуть представление мира о времени и пространстве. В ... 10 10 6
Info! Золотая раздача, скачанное не засчитывается.
Торрент: Зарегистрирован [2012-09-23 18:26] · скачан: 278 раз
Статус: √ проверено
Размер: 4.58 GB
Как cкачать? Как скачать Детонатор через торрент | qTorrent

% Раздел Тема Автор DL S | L
Фильмы 2001-2005 [ 744 MB ] Детонатор / Primer [2004 DVDRip] DVO -=Cherry=- Скачать
1 | 0

28-11-2019 20:33  

Отключить всю рекламу на сайте

23-09-2012 19:06 Детонатор Скачать торрент  

какой - какой бюджет ?!! а еще " нули " есть ?pb.wtf



23-09-2012 22:24 Детонатор Скачать торрент  

AaronCarter писал(а):

какой - какой бюджет ?!! а еще " нули " есть ?

Нет. В семь тыщ уложились. pb.wtf



24-09-2012 03:20 Детонатор Скачать торрент  

Злобный пёс писал(а):

AaronCarter писал(а):

какой - какой бюджет ?!! а еще " нули " есть ?

Нет. В семь тыщ уложились.

Запчасти для гаджета столько стоили в супермаркете - а кино на телефон снимали ))pb.wtf



23-10-2012 13:06 Детонатор Скачать торрент  

Кто смотрел? понравилось?pb.wtf



    Дорогой пользователь! Огромная просьба, поблагодарите релизера, оцените раздачу и оставьте свои комментарий, если Вы скачали Детонатор через торрент бесплатно! Внесите свою лепту в развитие PiratBit!
    Комментировать посты могут только пользователи прошедшие не сложную регистрацию
    Показать сообщения:    

    Детонатор через торрент
    Скачать бесплатно Детонатор
    Детонатор скачать торрент
    Детонатор смотреть онлайн
    Cкачать фильм Детонатор бесплатно
    Детонатор скачать торрент в хорошем качестве
    Детонатор смотреть онлайн бесплатно в хорошем качестве


    Вы не можете начинать темы
    Вы не можете отвечать на сообщения
    Вы не можете редактировать свои сообщения
    Вы не можете удалять свои сообщения
    Вы не можете голосовать в опросах
    Вы не можете прикреплять файлы к сообщениям
    Вы можете скачивать файлы