Ссылка на приватное зеркало нашего сайта всего за 1$. Внимание количество ограничено!!!

2 сезон

iTunes

1 сезон

1

2 сезон

2 сезон

iTunes

1 сезон

RePack

30

Ultimate

ВАЖНО

ИГРА 18+

pack

RePack

MK11
pack

Забери бонус

RePack

jed

!!Акция!!

Alien_Rage

RePack

fifa19

RePack

Assassins Creed: Odyssey

RePack

NEED FOR SPEED™ PAYBACK

4 сезон

9 сезон

Бесстыжие 9 сезон

Все сериалы

все сериалы на PB.wtf

RePack

FAR CRY 5
  

Турецкий для начинающих / Turkisch fur Anfanger (Бора Дагтекин) [2012 г., комедия, мелодрама, приключения, DVDRip, VO] pb.wtf

Турецкий для начинающих через торрент pb.wtf

Размер: 1.41 GB | Добавлен: 8 лет 2 мес. назад | Торрент скачан:538 раз
Скачать  

23-09-2012 19:32 Турецкий для начинающих Скачать торрент  

Турецкий для начинающих / Turkisch fur Anfanger / Turkish for Beginners

Год выпуска: 2012
Страна: Германия
Жанр: комедия, мелодрама, приключения
Продолжительность: 1:48:40
Перевод: Любительский (одноголосый) [Илья Леденёв]

Режиссер: Бора Дагтекин

В ролях: Жозефина Пройс, Эльяс М’Барек, Анна Штайблих, Аднан Марал, Пега Феридони, Арнел Таки, Катя Риманн, Катарина Каали, Фредерик Лау, Ник Ромео Рейманн

Описание: Лена — не особо довольная своей жизнью 19-летняя девушка, которой приходится спорить не только со своей матерью, нетрадиционным психотерапевтом, но и со своим бойфрендом, который хочет больше, чем она желает ему дать. Лена хочет только, чтобы все оставили ее в покое, но этого, конечно, не происходит. Напротив, ее мать дарит своей унылой дочери путешествие в Таиланд. К сожалению мечтам о солнце, пляже и отвязных вечеринках не суждено сбыться в связи с падением самолета. Дочь и мать выживают. Вместо того, чтобы встретиться в отеле, Лена оказывается на острове вместе с турецким мачо Чемом, его религиозной сестрой Ягмур и заикой Коста. В такой ситуации наступает хаос. В этоже время мать Лены встречает в отеле Метина, отца Чема и Ягмур.




Качество: DVDRip
Формат: AVI
Видео кодек: XviD
Аудио кодек: AC3
Видео: 720x304, 24fps, 1 660 kbps
Аудио: 48 kHz, AC3 , 192 kb/s (2 ch)

General
Complete name : F:\Tureczk1y_2lya_na4inayushh1h.2012.EVG.L1.DVDRip.avi
Format : AVI
Format/Info : Audio Video Interleave
Format profile : OpenDML
Format settings : rec
File size : 1.41 GiB
Duration : 1h 48mn
Overall bit rate : 1 857 Kbps
Writing application : AVI-Mux GUI 1.17.8.3, Feb 16 201019:42:50
Video #0
ID : 0
Format : MPEG-4 Visual
Format profile : Advanced Simple@L5
Format settings, BVOP : 3
Format settings, QPel : No
Format settings, GMC : No warppoints
Format settings, Matrix : Custom
Codec ID : XVID
Codec ID/Hint : XviD
Duration : 1h 48mn
Bit rate : 1 660 Kbps
Width : 720 pixels
Height : 304 pixels
Display aspect ratio : 2.35:1
Frame rate : 24.000 fps
Color space : YUV
Chroma subsampling : 4:2:0
Bit depth : 8 bits
Scan type : Progressive
Compression mode : Lossy
Bits/(Pixel*Frame) : 0.316
Stream size : 1.26 GiB (89%)
Writing library : XviD 1.2.1 (UTC 2008-12-04)
Audio #1
ID : 1
Format : AC-3
Format/Info : Audio Coding 3
Mode extension : CM (complete main)
Format settings, Endianness : Big
Codec ID : 2000
Duration : 1h 48mn
Bit rate mode : Constant
Bit rate : 192 Kbps
Channel(s) : 2 channels
Channel positions : Front: L R
Sampling rate : 48.0 KHz
Bit depth : 16 bits
Compression mode : Lossy
Stream size : 149 MiB (10%)
Alignment : Aligned on interleaves
Interleave, duration : 64 ms (1.54 video frames)
Interleave, preload duration : 192 ms
Title : Untitled






pb.wtf



Скачать Турецкий для начинающих через торрент http://pic.kartinco.top/images/1/dmewz5nnlp.jpg Скачать фильм Турецкий для начинающих через торрент бесплантно в хорошем качестве Описание: Лена — не особо довольная своей жизнью 19-летняя девушка, которой приходится спорить не только со своей матерью, нетрадиционным ... 10 10 1
Info! Золотая раздача, скачанное не засчитывается.
Торрент: Зарегистрирован [2012-09-23 19:32] · скачан: 538 раз
Статус: √ проверено
Размер: 1.41 GB
Как cкачать? Как скачать Турецкий для начинающих через торрент | qTorrent

% Раздел Тема Автор DL S | L
Фильмы [HD 720p, 1080p] (Хороший звук DUB, MVO) [ 5.63 GB ] Турецкий для начинающих / Turkisch fur Anfanger [2012 BDRip 720p] DEVI Скачать
1 | 0
Фильмы [HD 720p, 1080p] (Хороший звук DUB, MVO) [ 7.93 GB ] Турецкий для начинающих / Turkisch fur Anfanger [2012 BDRip 1080p] DEVI Скачать
1 | 0
Фильмы 2012 [ 1.46 GB ] Турецкий для начинающих / Turkisch fur Anfanger [2012 HDRip] [лицензия] VintMosina Скачать
1 | 0
Фильмы (DVD фильмы) [ 5.5 GB ] Турецкий для начинающих / Turkisch fur Anfanger / Turkish for Beginners [2012 DVD9] R5 voovaz Скачать
1 | 0

28-11-2019 20:33  

Отключить всю рекламу на сайте

23-09-2012 20:06 Турецкий для начинающих Скачать торрент  

По описанию вроде не плохой фильм, посмотревшие отпишитесь.pb.wtf



23-09-2012 20:13 Турецкий для начинающих Скачать торрент  

а дубл. перевод будет?pb.wtf



23-09-2012 20:48 Турецкий для начинающих Скачать торрент  

Сериал прикольный был)
посмотримpb.wtf



    Дорогой пользователь! Огромная просьба, поблагодарите релизера, оцените раздачу и оставьте свои комментарий, если Вы скачали Турецкий для начинающих через торрент бесплатно! Внесите свою лепту в развитие PiratBit!
    Комментировать посты могут только пользователи прошедшие не сложную регистрацию
    Показать сообщения:    

    Турецкий для начинающих через торрент
    Скачать бесплатно Турецкий для начинающих
    Турецкий для начинающих скачать торрент
    Турецкий для начинающих смотреть онлайн
    Cкачать фильм Турецкий для начинающих бесплатно
    Турецкий для начинающих скачать торрент в хорошем качестве
    Турецкий для начинающих смотреть онлайн бесплатно в хорошем качестве


    Вы не можете начинать темы
    Вы не можете отвечать на сообщения
    Вы не можете редактировать свои сообщения
    Вы не можете удалять свои сообщения
    Вы не можете голосовать в опросах
    Вы не можете прикреплять файлы к сообщениям
    Вы можете скачивать файлы