Ссылка на приватное зеркало нашего сайта всего за 1$. Внимание количество ограничено!!!

2 сезон

iTunes

1 сезон

1

iTunes

iTunes

iTunes

1 сезон

RePack

30

ИГРА 18+

pack

ВАЖНО

!!Акция!!

Alien_RageХит недели

RePack

MK11
pack

Забери бонус

RePack

jed

!!Акция!!

Alien_Rage

RePack

fifa19

RePack

Assassins Creed: Odyssey

RePack

NEED FOR SPEED™ PAYBACK

4 сезон

9 сезон

Бесстыжие 9 сезон

Все сериалы

все сериалы на PB.wtf

RePack

FAR CRY 5
  

Обитель зла: Проклятие / Resident Evil: Damnation / Biohazard: Damnation (Макото Камия) [2012 г., Мультфильм, ужасы, фантастика, боевик, триллер, BDRip, MVO, лицензия] pb.wtf

Обитель зла: Проклятие через торрент pb.wtf

Размер: 2.18 GB | Добавлен: 8 лет назад | Торрент скачан:1276 раз
Скачать  

24-09-2012 06:11 Обитель зла: Проклятие Скачать торрент  

Обитель зла: Проклятие / Resident Evil: Damnation | Biohazard: Damnation

Год выпуска: 2012
Страна:
Жанр: Мультфильм, ужасы, фантастика, боевик, триллер
Продолжительность: 01:40:02
Перевод: Профессиональный (многоголосый, закадровый)

Режиссер: Макото Камия



В ролях: Робин Сакс, Кортни Тейлор, Кэролин Лоуренс, Мэттью Мерсер, Уэнди Ли, Дейв Уиттенберг, Салли Саффиоти, Вэл Тассо, Элисон Корт

Описание: Продолжение популярной компьютерной анимации «Обитель зла: Вырождение». Леон Кеннеди отправляется в Восточную Европу на борьбу с монстрами — порождениями корпорации Амбрела. Больше монстров, больше пушек, больше экшена.

Качество: BDRip
Формат: MKV
Видео кодек: H.264
Аудио кодек: AC3
Видео: 2353 Кбит/с, 1024x576, 23,976 fps
Аудио#1: 48 kHz, 384 Kbps; 6ch - RUS
Аудио#2: 48 kHz, 384 Kbps; 6ch - ENG
Субтитры: Русские, украинские, английские
D:\Загрузки с торрента\Obitel.Zla.Proklyatie.2012.P.BDRip.x264.potroks.mkv
General
Unique ID : 244351456214834492089754951382421304464 (0xB7D460EF113B1DC7A2ADA54DCB2D7490)
Complete name : D:\Загрузки с торрента\Obitel.Zla.Proklyatie.2012.P.BDRip.x264.potroks.mkv
Format : Matroska
Format version : Version 2
File size : 2.18 GiB
Duration : 1h 40mn
Overall bit rate : 3 122 Kbps
Movie name : -=POTROKS=-
Encoded date : UTC 2012-09-23 03:12:15
Writing application : mkvmerge v5.7.0 ('The Whirlwind') built on Jul 8 2012 20:08:51
Writing library : libebml v1.2.3 + libmatroska v1.3.0
Video #1
ID : 1
Format : AVC
Format/Info : Advanced Video Codec
Format profile : High@L4.1
Format settings, CABAC : Yes
Format settings, ReFrames : 12 frames
Codec ID : V_MPEG4/ISO/AVC
Bit rate : 2 353 Kbps
Width : 1 024 pixels
Height : 576 pixels
Display aspect ratio : 16:9
Frame rate mode : Variable
Color space : YUV
Chroma subsampling : 4:2:0
Bit depth : 8 bits
Scan type : Progressive
Title : Obitel.Zla.Proklyatie.2012.P.BDRip.x264.potroks
Writing library : x264 core 116 r2019M 9cc407d
Encoding settings : cabac=1 / ref=13 / deblock=1:-2:-2 / analyse=0x3:0x133 / me=umh / subme=10 / psy=1 / psy_rd=1.00:0.00 / mixed_ref=1 / me_range=48 / chroma_me=1 / trellis=2 / 8x8dct=1 / cqm=0 / deadzone=21,11 / fast_pskip=0 / chroma_qp_offset=-2 / threads=8 / sliced_threads=0 / nr=0 / decimate=1 / interlaced=0 / bluray_compat=0 / constrained_intra=0 / bframes=14 / b_pyramid=1 / b_adapt=2 / b_bias=0 / direct=3 / weightb=1 / open_gop=0 / weightp=2 / keyint=240 / keyint_min=23 / scenecut=40 / intra_refresh=0 / rc_lookahead=100 / rc=2pass / mbtree=1 / bitrate=2353 / ratetol=1.0 / qcomp=0.70 / qpmin=10 / qpmax=51 / qpstep=4 / cplxblur=20.0 / qblur=0.5 / vbv_maxrate=20000 / vbv_bufsize=25000 / nal_hrd=none / ip_ratio=1.35 / aq=1:0.85
Language : Japanese
Default : Yes
Forced : No
Audio #2
ID : 2
Format : AC-3
Format/Info : Audio Coding 3
Mode extension : CM (complete main)
Format settings, Endianness : Big
Codec ID : A_AC3
Duration : 1h 40mn
Bit rate mode : Constant
Bit rate : 384 Kbps
Channel(s) : 6 channels
Channel positions : Front: L C R, Side: L R, LFE
Sampling rate : 48.0 KHz
Bit depth : 16 bits
Compression mode : Lossy
Stream size : 275 MiB (12%)
Title : MVO
Language : Russian
Default : Yes
Forced : No
Audio #3
ID : 3
Format : AC-3
Format/Info : Audio Coding 3
Mode extension : CM (complete main)
Format settings, Endianness : Big
Codec ID : A_AC3
Duration : 1h 40mn
Bit rate mode : Constant
Bit rate : 384 Kbps
Channel(s) : 6 channels
Channel positions : Front: L C R, Side: L R, LFE
Sampling rate : 48.0 KHz
Bit depth : 16 bits
Compression mode : Lossy
Stream size : 275 MiB (12%)
Language : English
Default : No
Forced : No
Text #4
ID : 4
Format : UTF-8
Codec ID : S_TEXT/UTF8
Codec ID/Info : UTF-8 Plain Text
Language : Russian
Default : No
Forced : No
Text #5
ID : 5
Format : UTF-8
Codec ID : S_TEXT/UTF8
Codec ID/Info : UTF-8 Plain Text
Language : Ukrainian
Default : No
Forced : No
Text #6
ID : 6
Format : UTF-8
Codec ID : S_TEXT/UTF8
Codec ID/Info : UTF-8 Plain Text
Language : English
Default : No
Forced : No
pb.wtf



Скачать Обитель зла: Проклятие через торрент http://pic.kartinco.top/images/1/93lvmq3dl4.png Скачать фильм Обитель зла: Проклятие через торрент бесплантно в хорошем качестве Описание: Продолжение популярной компьютерной анимации «Обитель зла: Вырождение». Леон Кеннеди отправляется в Восточную Европу на борьбу с ... 9.7 10 13
Info! Золотая раздача, скачанное не засчитывается.
Торрент: Зарегистрирован [2012-09-24 06:11] · скачан: 1 276 раз
Статус: √ проверено
Размер: 2.18 GB
Как cкачать? Как скачать Обитель зла: Проклятие через торрент | qTorrent

% Раздел Тема Автор DL S | L
Зарубежные Мультфильмы (BDRip 1080p, 720p, Blu-ray, BD-Remux) [ 2.52 GB ] Обитель зла: Проклятие / Biohazard: Damnation / Resident Evil: Damnation [2012 Мультфильм BDRip 1080p-HEVC 10bit ] ADVOKAT69 Скачать
2 | 0

28-11-2019 20:33  

Отключить всю рекламу на сайте

24-09-2012 13:51 Обитель зла: Проклятие Скачать торрент  

Ни о чём, куда катится серия резикаpb.wtf



24-09-2012 14:35 Обитель зла: Проклятие Скачать торрент  

Вырождение мне понравился, все в духе первых частей фильма и игры. Надо глянуть, что представляет собой продолжение мульта.pb.wtf



26-09-2012 10:02 Обитель зла: Проклятие Скачать торрент  

Ferord писал(а):

Ни о чём, куда катится серия резика

туда же куда и все остальное... кино, игры.. мир - все в одну сторону катитсяpb.wtf



    Дорогой пользователь! Огромная просьба, поблагодарите релизера, оцените раздачу и оставьте свои комментарий, если Вы скачали Обитель зла: Проклятие через торрент бесплатно! Внесите свою лепту в развитие PiratBit!
    Комментировать посты могут только пользователи прошедшие не сложную регистрацию
    Показать сообщения:    

    Обитель зла: Проклятие через торрент
    Скачать бесплатно Обитель зла: Проклятие
    Обитель зла: Проклятие скачать торрент
    Обитель зла: Проклятие смотреть онлайн
    Cкачать фильм Обитель зла: Проклятие бесплатно
    Обитель зла: Проклятие скачать торрент в хорошем качестве
    Обитель зла: Проклятие смотреть онлайн бесплатно в хорошем качестве


    Вы не можете начинать темы
    Вы не можете отвечать на сообщения
    Вы не можете редактировать свои сообщения
    Вы не можете удалять свои сообщения
    Вы не можете голосовать в опросах
    Вы не можете прикреплять файлы к сообщениям
    Вы можете скачивать файлы