Ссылка на приватное зеркало нашего сайта всего за 1$. Внимание количество ограничено!!!

2 сезон

iTunes

iTunes

1

iTunes

iTunes

iTunes

WEBRip

iTunes

30
pack

Забери бонус

ВАЖНО

!!Акция!!

Alien_RageХит недели

RePack

RESIDENT EVIL 3: NEMESIS REMAKE

ИГРА 18+

pack

RePack

jed

!!Акция!!

Alien_Rage

RePack

fifa19

RePack

Assassins Creed: Odyssey

RePack

NEED FOR SPEED™ PAYBACK

4 сезон

9 сезон

Бесстыжие 9 сезон

Все сериалы

все сериалы на PB.wtf

RePack

FAR CRY 5
  

Пьер Вудман трахает русскую девочку - гимнастку / Kasting--St.Petersburg--Russia (Пьер Вудман / Pierre Woodman) [2011 г., Kasting, All Sex, Oral, Anal, SiteRip] pb.wtf

Скачать  

25-09-2012 07:29 Пьер Вудман трахает русскую девочку - гимнастку Скачать торрент  

Пьер Вудман трахает русскую девочку - гимнастку / Kasting--St.Petersburg--Russia



Год выпуска: 2011
Страна: Франция
Жанр: Kasting, All Sex, Oral, Anal
Продолжительность: 01:44:40
Перевод: Оригинал

Режиссер: Пьер Вудман / Pierre Woodman
Сценарий: Пьер Вудман / Pierre Woodman

В ролях: Пьер Вудман и русская девочка

Описание: Пьер Вудман очень любит развлекаться с молодыми русскими девушками. На этот раз ему на кастинг пришла девочка занимающаяся гимнастикой.
Девочка долго стеснялась видеокамеры. Вудман обманув её сказав что камера выключена.
Продолжив общаться с этой девушкой он стали ласкать её тело,мастурбировать её дырочки, а потом трахнул её во все дырки.

Качество: SiteRip
Формат: MP4
Видео кодек: AVC
Аудио кодек: AAC
Видео: ~ 439 Кбит/сек, 568x320 (16:9), 20,000 кадров/сек, 0.121 бит/(пиксели*кадры)
Аудио: ~ 38,0 Кбит/сек, 1 канал, 22,05 КГц

Формат : MPEG-4
Профиль формата : Base Media
Идентификатор кодека : isom
Размер файла : 358 Мбайт
Продолжительность : 1 ч. 44 м.
Режим общего битрейта : Переменный
Общий поток : 478 Кбит/сек
Дата кодирования : UTC 2012-06-03 21:11:48
Дата пометки : UTC 2012-06-03 21:11:48

Видео
Идентификатор : 1
Формат : AVC
Формат/Информация : Advanced Video Codec
Профиль формата : Main@L2.1
Параметр CABAC формата : Нет
Параметр ReFrames формата : 6 кадров
Идентификатор кодека : avc1
Идентификатор кодека/Информация : Advanced Video Coding
Продолжительность : 1 ч. 44 м.
Битрейт : 439 Кбит/сек
Максимальный битрейт : 817 Кбит/сек
Ширина : 568 пикселей
Высота : 320 пикселей
Соотношение сторон : 16:9
Режим частоты кадров : Постоянный
Частота кадров : 20,000 кадров/сек
Цветовое пространство : YUV
Субдискретизация насыщенности : 4:2:0
Битовая глубина : 8 бит
Тип развёртки : Прогрессивная
Бит/(Пиксели*Кадры) : 0.121
Размер потока : 328 Мбайт (92%)
Библиотека кодирования : x264 core 119
Настройки программы : cabac=0 / ref=6 / deblock=1:0:0 / analyse=0x1:0x131 / me=esa / subme=8 / psy=1 / psy_rd=1.00:0.00 / mixed_ref=0 / me_range=16 / chroma_me=1 / trellis=1 / 8x8dct=0 / cqm=0 / deadzone=21,11 / fast_pskip=1 / chroma_qp_offset=-2 / threads=12 / sliced_threads=0 / nr=0 / decimate=1 / interlaced=0 / bluray_compat=0 / constrained_intra=0 / bframes=0 / weightp=2 / keyint=250 / keyint_min=25 / scenecut=40 / intra_refresh=0 / rc_lookahead=40 / rc=crf / mbtree=1 / crf=22.0 / qcomp=0.10 / qpmin=10 / qpmax=51 / qpstep=4 / vbv_maxrate=512 / vbv_bufsize=512 / crf_max=0.0 / nal_hrd=none / ip_ratio=1.41 / aq=1:1.00
Дата пометки : UTC 2012-06-03 21:11:52

Аудио
Идентификатор : 2
Формат : AAC
Формат/Информация : Advanced Audio Codec
Профиль формата : LC
Идентификатор кодека : 40
Продолжительность : 1 ч. 44 м.
Вид битрейта : Переменный
Битрейт : 38,0 Кбит/сек
Максимальный битрейт : 62,7 Кбит/сек
Каналы : 1 канал
Расположение каналов : Front: C
Частота : 22,05 КГц
Метод сжатия : С потерями
Размер потока : 28,4 Мбайт (8%)
Дата кодирования : UTC 2012-06-03 21:11:50
Дата пометки : UTC 2012-06-03 21:11:52

pb.wtf





Последний раз редактировалось: makarevich (2012-09-25 07:40), всего редактировалось 2 раз(а)

28-11-2019 20:33  

Отключить всю рекламу на сайте

25-09-2012 07:36 Пьер Вудман трахает русскую девочку - гимнастку Скачать торрент  

Формат MP4 и название над обложкойpb.wtf



    Дорогой пользователь! Огромная просьба, поблагодарите релизера, оцените раздачу и оставьте свои комментарий, если Вы скачали Пьер Вудман трахает русскую девочку - гимнастку через торрент бесплатно! Внесите свою лепту в развитие PiratBit!
    Комментировать посты могут только пользователи прошедшие не сложную регистрацию
    Показать сообщения:    

    Пьер Вудман трахает русскую девочку - гимнастку через торрент
    Скачать бесплатно Пьер Вудман трахает русскую девочку - гимнастку
    Пьер Вудман трахает русскую девочку - гимнастку скачать торрент
    Пьер Вудман трахает русскую девочку - гимнастку смотреть онлайн
    Cкачать фильм Пьер Вудман трахает русскую девочку - гимнастку бесплатно
    Пьер Вудман трахает русскую девочку - гимнастку скачать торрент в хорошем качестве
    Пьер Вудман трахает русскую девочку - гимнастку смотреть онлайн бесплатно в хорошем качестве


    Вы не можете начинать темы
    Вы не можете отвечать на сообщения
    Вы не можете редактировать свои сообщения
    Вы не можете удалять свои сообщения
    Вы не можете голосовать в опросах
    Вы не можете прикреплять файлы к сообщениям
    Вы можете скачивать файлы