MEGA SALE -50% FORZA HORIZON 4 ULTIMATE+ВСЕ DLC+ОНЛАЙН всего за 599р. 299 руб. (супер цена). Внимание количество ограничено!!!

iTunes

1+1

iTunes

мы

iTunes

1

iTunes

Чернобыль

iTunes

Ральф против интернета

Лицензия

ПШазам

Лицензия

Игра престолов

Лицензия

30
pack

ВАЖНО

!!Акция!!

Alien_RageХит недели

RePack

Resident Evil 21

ИГРА 18+

pack

RePack

Metro:Exodus

!!Акция!!

Alien_Rage

RePack

fifa19

RePack

Assassins Creed: Odyssey

RePack

NEED FOR SPEED™ PAYBACK

3 сезон

9 сезон

Бесстыжие 9 сезон

Все сериалы

все сериалы на PB.wtf

RePack

FAR CRY 5
Ребята, катастрофически не хватает 7730р. для оплаты серверов за АВГУСТ (всвязи с блокировками трафик упал в 3 раза), 1-2р., выручайте.
  

Звездный путь / Star Trek (Джей Джей Абрамс) [2009 г., фантастика, боевик, приключения, HDRip, DUB, лицензия] pb.wtf

Звездный путь через торрент pb.wtf

Раздают: 1 [ 0 KB/s ]
Размер: 2.13 GB | Добавлен: 6 лет 11 мес. назад | Торрент скачан:3682 раза
Скачать  

25-09-2012 08:13 Звездный путь Скачать торрент  

Звездный путь / Star Trek

Год выпуска: 2009
Страна: США
Жанр: фантастика, боевик, приключения
Продолжительность: 02:07:00
Перевод: Дубляж, Лицензия

Режиссер: Джей Джей Абрамс
Продюссер: Джей Джей Абрамс, Дэймон Линделоф, Дэвид Бэроннэф
Сценарий: Роберто Орси, Алекс Куртцман, Джин Родденберри

Бюджет: $150 000 000
Премьера в мире: 7 апреля 2009

детям до 13 лет просмотр не желателен
Мировой рейтинг IMDB 8.00 (255 707)


В ролях: Крис Пайн, Закари Куинто, Леонард Нимой, Эрик Бана, Брюс Гринвуд, Карл Урбан, Зои Салдана, Саймон Пегг, Джон Чо, Антон Ельчин, Александр Коврижных, Пётр Иващенко, Борис Быстров, Александр Груздев, Владимир Герасимов

Описание: Когда Нерон с планеты Ромул приходит из будущего, чтобы отомстить Федерации, конкуренты Кирк и Спок должны объединиться, чтобы не дать ему разрушить все, что им дорого. Во время этого будоражащего путешествия, наполненного эффектными боями, юмором и космическими угрозами, новоиспеченные члены команды военного корабля «Энтерпрайз» смело встретятся лицом к лицу с невообразимыми опасностями.

Качество: HDRip
Формат: MKV
Видео кодек: H.264
Аудио кодек: AC3
Видео: 704 x296 (2,40:1), 23,976fps, AVC MPEG-4 (H.264), ~1975 kbps avg,0.395 bit/pixel
Аудио: 48 kHz, AC3 Dolby Digital, 3/2 (L,C,R,l,r) + LFE ch, ~448 kbps avg

Автор рипа







Общее
Уникальный идентификатор : 199064283142406531441673769418873015596 (0x95C262E98CDD2CECB5CA6F2A5F968D2C)
Полное имя : E:\Завершенные фильмы\zvezdny put.mkv
Формат : Matroska
Версия формата : Version 2
Размер файла : 2,13 Гбайт
Продолжительность : 2 ч. 6 м.
Общий поток : 2402 Кбит/сек
Дата кодирования : UTC 2012-09-24 19:27:24
Программа кодирования : mkvmerge v5.6.0 ('Kenya Kane') built on Jun 29 2012 15:01:44
Библиотека кодирования : libebml v1.2.3 + libmatroska v1.3.0

Видео
Идентификатор : 1
Формат : AVC
Формат/Информация : Advanced Video Codec
Параметр CABAC формата : Да
Параметр ReFrames формата : 8 кадров
Идентификатор кодека : V_MPEG4/ISO/AVC
Продолжительность : 2 ч. 6 м.
Битрейт : 1975 Кбит/сек
Ширина : 704 пикселя
Высота : 296 пикселей
Соотношение сторон : 2,40:1
Частота кадров : 23,976 кадра/сек
Цветовое пространство : YUV
Субдискретизация насыщенности : 4:2:0
Битовая глубина : 8 бит
Тип развёртки : Прогрессивная
Бит/(Пиксели*Кадры) : 0.395
Размер потока : 1,69 Гбайт (79%)
Библиотека кодирования : x264 core 125 r2200 999b753
Настройки программы : cabac=1 / ref=8 / deblock=1:0:0 / analyse=0x3:0x113 / me=hex / subme=7 / psy=1 / psy_rd=1.00:0.00 / mixed_ref=1 / me_range=16 / chroma_me=1 / trellis=1 / 8x8dct=1 / cqm=0 / deadzone=21,11 / fast_pskip=1 / chroma_qp_offset=-2 / threads=6 / lookahead_threads=1 / sliced_threads=0 / nr=0 / decimate=1 / interlaced=0 / bluray_compat=0 / constrained_intra=0 / bframes=4 / b_pyramid=2 / b_adapt=1 / b_bias=0 / direct=1 / weightb=1 / open_gop=0 / weightp=2 / keyint=250 / keyint_min=23 / scenecut=40 / intra_refresh=0 / rc_lookahead=40 / rc=abr / mbtree=1 / bitrate=1975 / ratetol=1.0 / qcomp=0.60 / qpmin=0 / qpmax=69 / qpstep=4 / ip_ratio=1.40 / aq=1:1.00
Default : Да
Forced : Нет

Аудио
Идентификатор : 2
Формат : AC-3
Формат/Информация : Audio Coding 3
Расширение режима : CM (complete main)
Параметр Endianness формата : Big
Идентификатор кодека : A_AC3
Продолжительность : 2 ч. 6 м.
Вид битрейта : Постоянный
Битрейт : 448 Кбит/сек
Каналы : 6 каналов
Расположение каналов : Front: L C R, Side: L R, LFE
Частота : 48,0 КГц
Битовая глубина : 16 бит
Метод сжатия : С потерями
Размер потока : 406 Мбайт (19%)
Default : Да
Forced : Нет

pb.wtf



Скачать Звездный путь через торрент http://pic.kartinco.top/images/1/gqchlw2ihy.jpg Скачать фильм Звездный путь через торрент бесплантно в хорошем качестве Описание: Когда Нерон с планеты Ромул приходит из будущего, чтобы отомстить Федерации, конкуренты Кирк и Спок должны объединиться, чтобы не ... 9.9 10 74
Info! Золотая раздача, скачанное не засчитывается.
Торрент: Зарегистрирован [2012-09-25 08:13] · скачан: 3 682 раз
Статус: √ проверено
Размер: 2.13 GB
Как cкачать? Как скачать Звездный путь через торрент | qTorrent

% Раздел Тема Автор DL S | L
Фильмы [HD 720p, 1080p] (Хороший звук DUB, MVO) [ 10.93 GB ] Звездный путь 8: Первый контакт / Star Trek: First Contact [1996 BDRip 1080p] 3xMVO+AVO bober100 Скачать
2 | 0
Фильмы [HD 720p, 1080p] (Хороший звук DUB, MVO) [ 10.66 GB ] Звездный путь 7: Поколения / Star Trek: Generations [1994 BDRip 1080p] 2xMVO+DVO+2xAVO bober100 Скачать
2 | 0
Фильмы [HD 720p, 1080p] (Хороший звук DUB, MVO) [ 9.97 GB ] Звездный путь 6: Неоткрытая страна / Star Trek VI: The Undiscovered Country [1991 BDRip 1080p] MVO+AVO bober100 Скачать
2 | 0
Фильмы [HD 720p, 1080p] (Хороший звук DUB, MVO) [ 9.04 GB ] Звездный путь 5: Последний рубеж / Star Trek V: The Final Frontier [1989 BDRip 1080p] MVO+AVO bober100 Скачать
2 | 0
Фильмы [HD 720p, 1080p] (Хороший звук DUB, MVO) [ 11.71 GB ] Звёздный путь 4: Дорога домой / Star Trek IV: The Voyage Home [1986 BDRip 1080p] MVO+AVO bober100 Скачать
2 | 0
Фильмы [HD 720p, 1080p] (Хороший звук DUB, MVO) [ 9.2 GB ] Звездный путь 3: В поисках Спока / Star Trek III: The Search for Spock [1984 BDRip 1080p] MVO+2xAVO bober100 Скачать
2 | 0
Фильмы [HD 720p, 1080p] (Хороший звук DUB, MVO) [ 9.72 GB ] Звездный путь 2: Гнев Хана / Star Trek: The Wrath of Khan [1982 BDRip 1080p] 3xMVO+AVO bober100 Скачать
2 | 0


>> Регистрируемся здесь <<






Отзывы и комментарии о схеме читаем и пишем здесь: ---> Отзывы и комментарии о схеме

Новые благодарочки в телеграм довольных пользователей:
скриншот   скриншот   скриншот   скриншот   скриншот

25-09-2012 08:28 Звездный путь Скачать торрент  

Приятного просмотра! pb.wtf



24-04-2013 19:47 Звездный путь Скачать торрент  

Благодарю за фильмpb.wtf



14-05-2013 16:22 Звездный путь Скачать торрент  

Мдя не густо отзывов третьим буду=))pb.wtf



21-09-2013 15:27 Звездный путь Скачать торрент  

(четвертым буду=)

Смотрел в далёком 2009-м. Качаю дабы заценить весь масштаб трагедии перед просмотром "Возмездия". Сказал спасибки.pb.wtf



17-08-2015 19:40 Звездный путь Скачать торрент  

первый раз зыркаю! Люблю fantasy))pb.wtf



    Дорогой пользователь! Огромная просьба, поблагодарите релизера, оцените раздачу и оставьте свои комментарий, если Вы скачали Звездный путь через торрент бесплатно! Внесите свою лепту в развитие PiratBit!
    Комментировать посты могут только пользователи прошедшие не сложную регистрацию
    Показать сообщения:    

    Звездный путь через торрент
    Скачать бесплатно Звездный путь
    Звездный путь скачать торрент
    Звездный путь смотреть онлайн
    Cкачать фильм Звездный путь бесплатно
    Звездный путь скачать торрент в хорошем качестве
    Звездный путь смотреть онлайн бесплатно в хорошем качестве


    Вы не можете начинать темы
    Вы не можете отвечать на сообщения
    Вы не можете редактировать свои сообщения
    Вы не можете удалять свои сообщения
    Вы не можете голосовать в опросах
    Вы не можете прикреплять файлы к сообщениям
    Вы можете скачивать файлы