Доктор Стрэндж

Лицензия

Добыча

Дубляж

Уэнсдэй

1 сезон

Тор

Дубляж

В эфире

Дубляж

Там, где раки поют

MVO

Властелин колец

1 сезон

Deluxe

pack

Рекомендуем

30

Пиратка

ВАЖНО

ВАЖНО

Ghostwire

Пиратка

jed

RePack

nioh2

RePack

RDR2

RePack

NEED FOR SPEED™ PAYBACK

RePack

скачать торрент

Кинопоиск HD

Острые козырьки 6 сезон

6 сезон

FAR CRY 6

RePack

скачать торрент

Лицензия

скачать торрент

MVO

1

1 сезон

скачать торрент

1 сезон

скачать торрент

Лицензия

  

Земное ядро / The Core (Джон Эмиел) [2003 г., фантастика, боевик, триллер, приключения, Blu-Ray (1080p), Дубляж]

Земное ядро через торрент pb.wtf

Размер: 37.25 GB | Добавлен: 10 лет назад | Торрент скачан:41 раз
Смотреть онлайн | Скачать   

26-09-2012 17:31 Земное ядро Скачать торрент  

Земное ядро / The Core
Год выпуска: 2003
Страна: США
Жанр: фантастика, боевик, триллер, приключения
Продолжительность: 02:14:57
Перевод: Дубляж
Субтитры: Русские, английские, датские, испанские, немецкие, французские, голландские, норвежские, финские

Режиссер: Джон Эмиел
Продюссер: Шон Бэйли, Дэвид Фостер, Дэвид Б. Хаусхолтер
Сценарий: Купер Лейн, Джон Роджерс
Бюджет: $60 000 000
Премьера в мире: 25 марта 2003
Мировой рейтинг IMDB 5.30 (46 042)

В ролях: Аарон Экхарт, Хилари Суэнк, Делрой Линдо, Стэнли Туччи, DJ Куаллс, Ричард Дженкинс, Чеки Карио, Брюс Гринвуд, Элфри Вудард, Кристофер Шайер, Владимир Антоник, Марина Тарасова, Виктор Бохон, Владимир Вихров, Андрей Казанцев
Описание: Герой картины, геофизик Джош Кийз, сделал шокирующее открытие: ядро земли перестало вращаться. Электромагнитное поле нашей планеты разрушается, и скоро Земля погибнет!Есть лишь одна надежда: Кийз с командой первоклассных ученых отправится в экспедицию к остановившемуся ядру на уникальном термостойком корабле, чтобы... взорвать ядерный заряд. Этот взрыв должен будет заставить вращаться злополучное ядро, и человечество будет спасено! Путешествие к центру Земли начинается!
Качество: Blu-Ray (1080p)
Контейнер::BDMV
Видео кодек: m2ts
Аудио кодек: AC3,DTS
Видео: AVC at 34,1 Мбит/сек : 1920 x 1080 (1.778) at 23.976 fps
Аудио#1: DTS at 1576 Кбит/сек / 1510 Кбит/сек : 6 каналов, 48,0 КГц |Многоголосый закадровый| Russian
Аудио#2: AC-3 at 192 Кбит/сек : 2 канала, 48,0 КГц |Дубляж|
Аудио#3: DTS at 1561 Кбит/сек / 1510 Кбит/сек : 6 каналов, 48,0 КГц английский |Оригинал|
Аудио#4: AC-3 at 192 Кбит/сек : 2 канала, 48,0 КГц украинский |Многоголосый закадровый|

Общее
Идентификатор : 0 (0x0)
Полное имя : D:\THE_CORE_BD_BLUEBIRD\BDMV\STREAM\00051.m2ts
Формат : BDAV
Формат/Информация : Blu-ray Video
Размер файла : 36,9 Гбайт
Продолжительность : 2 ч. 14 м.
Режим общего битрейта : Переменный
Общий поток : 39,2 Мбит/сек
Максимальный общий битрейт : 48,0 Мбит/сек

Видео
Идентификатор : 4113 (0x1011)
Идентификатор меню : 1 (0x1)
Формат : AVC
Формат/Информация : Advanced Video Codec
Профиль формата : [email protected]
Параметр CABAC формата : Да
Параметр ReFrames формата : 4 кадра
Идентификатор кодека : 27
Продолжительность : 2 ч. 14 м.
Вид битрейта : Переменный
Битрейт : 34,1 Мбит/сек
Максимальный битрейт : 38,0 Мбит/сек
Ширина : 1920 пикселей
Высота : 1080 пикселей
Соотношение сторон : 16:9
Частота кадров : 23,976 кадра/сек
Цветовое пространство : YUV
Субдискретизация насыщенности : 4:2:0
Битовая глубина : 8 бит
Тип развёртки : Прогрессивная
Бит/(Пиксели*Кадры) : 0.685
Размер потока : 32,1 Гбайт (87%)

Аудио #1
Идентификатор : 4352 (0x1100)
Идентификатор меню : 1 (0x1)
Формат : DTS
Формат/Информация : Digital Theater Systems
Профиль формата : MA / Core
Режим смешивания : Stream extension
Идентификатор кодека : 134
Продолжительность : 2 ч. 14 м.
Вид битрейта : Переменный
Битрейт : 1576 Кбит/сек / 1510 Кбит/сек
Каналы : 6 каналов
Расположение каналов : Front: L C R, Side: L R, LFE
Частота : 48,0 КГц
Битовая глубина : 24 бит
Метод сжатия : Без потерь / Lossy

Аудио #2
Идентификатор : 4353 (0x1101)
Идентификатор меню : 1 (0x1)
Формат : AC-3
Формат/Информация : Audio Coding 3
Расширение режима : CM (complete main)
Параметр Endianness формата : Big
Идентификатор кодека : 129
Продолжительность : 2 ч. 14 м.
Вид битрейта : Постоянный
Битрейт : 192 Кбит/сек
Каналы : 2 канала
Расположение каналов : Front: L R
Частота : 48,0 КГц
Битовая глубина : 16 бит
Метод сжатия : С потерями
Размер потока : 185 Мбайт (0%)

Аудио #3
Идентификатор : 4354 (0x1102)
Идентификатор меню : 1 (0x1)
Формат : DTS
Формат/Информация : Digital Theater Systems
Профиль формата : MA / Core
Режим смешивания : Stream extension
Идентификатор кодека : 134
Продолжительность : 2 ч. 14 м.
Вид битрейта : Переменный
Битрейт : 1561 Кбит/сек / 1510 Кбит/сек
Каналы : 6 каналов
Расположение каналов : Front: L C R, Side: L R, LFE
Частота : 48,0 КГц
Битовая глубина : 24 бит
Метод сжатия : Без потерь / Lossy

Аудио #4
Идентификатор : 4355 (0x1103)
Идентификатор меню : 1 (0x1)
Формат : AC-3
Формат/Информация : Audio Coding 3
Профиль формата : Dolby Digital
Расширение режима : CM (complete main)
Параметр Endianness формата : Big
Идентификатор кодека : 129
Продолжительность : 2 ч. 14 м.
Вид битрейта : Постоянный
Битрейт : 192 Кбит/сек
Каналы : 2 канала
Расположение каналов : Front: L R
Частота : 48,0 КГц
Битовая глубина : 16 бит
Метод сжатия : С потерями
Размер потока : 185 Мбайт (0%)

Текст #1
Идентификатор : 4608 (0x1200)
Идентификатор меню : 1 (0x1)
Формат : PGS
Идентификатор кодека : 144

Текст #2
Идентификатор : 4609 (0x1201)
Идентификатор меню : 1 (0x1)
Формат : PGS
Идентификатор кодека : 144

Текст #3
Идентификатор : 4610 (0x1202)
Идентификатор меню : 1 (0x1)
Формат : PGS
Идентификатор кодека : 144

Текст #4
Идентификатор : 4611 (0x1203)
Идентификатор меню : 1 (0x1)
Формат : PGS
Идентификатор кодека : 144

Текст #5
Идентификатор : 4612 (0x1204)
Идентификатор меню : 1 (0x1)
Формат : PGS
Идентификатор кодека : 144

Текст #6
Идентификатор : 4613 (0x1205)
Идентификатор меню : 1 (0x1)
Формат : PGS
Идентификатор кодека : 144

Текст #7
Идентификатор : 4614 (0x1206)
Идентификатор меню : 1 (0x1)
Формат : PGS
Идентификатор кодека : 144

Текст #8
Идентификатор : 4615 (0x1207)
Идентификатор меню : 1 (0x1)
Формат : PGS
Идентификатор кодека : 144

Текст #9
Идентификатор : 4616 (0x1208)
Идентификатор меню : 1 (0x1)
Формат : PGS
Идентификатор кодека : 144

Текст #10
Идентификатор : 4617 (0x1209)
Идентификатор меню : 1 (0x1)
Формат : PGS
Идентификатор кодека : 144

Текст #11
Идентификатор : 4618 (0x120A)
Идентификатор меню : 1 (0x1)
Формат : PGS
Идентификатор кодека : 144

Текст #12
Идентификатор : 4619 (0x120B)
Идентификатор меню : 1 (0x1)
Формат : PGS
Идентификатор кодека : 144

Текст #13
Идентификатор : 4620 (0x120C)
Идентификатор меню : 1 (0x1)
Формат : PGS
Идентификатор кодека : 144




Скачать Земное ядро через торрент http://s017.radikal.ru/i430/1110/80/8aa90f7e83e7.png Скачать, смотреть онлайн Земное ядро бесплантно в хорошем качестве Описание: Герой картины, геофизик Джош Кийз, сделал шокирующее открытие: ядро земли перестало вращаться. Электромагнитное поле нашей ... 9.7 10 3
Info! Золотая раздача, скачанное не засчитывается.
Торрент: Зарегистрирован [2012-09-26 17:31] · скачан: 41 раз
Статус: √ проверено
Размер: 37.25 GB
Как cкачать? Как скачать Земное ядро через торрент | UTorrent

% Раздел Тема Автор DL S | L
Фильмы (HD 720p, 1080p) (48-60 fps) [ 5.17 GB ] Земное ядро / The Core | Дубляж | 720p / 60 FPS slaventi-69 Скачать
2 | 0
Фильмы 2001-2005 [ 2.16 GB ] Земное Ядро / The Core | | HDTVRip,дубляж akcent Скачать
1 | 0



Последний раз редактировалось: VintMosina (2012-09-26 19:08), всего редактировалось 1 раз

28-11-2019 20:33  


Отключить вcю реклaмy на сайте, в т.ч. и в плеере онлайн просмотра!

26-09-2012 17:53 Земное ядро Скачать торрент  

Сделайте плиз (Rips), хотяб 1,37Гб



26-09-2012 18:18 Земное ядро Скачать торрент  

shultz
Скриншоты не соответствуют МИ и информации видео файла.



26-09-2012 18:35 Земное ядро Скачать торрент  

zik-2 писал(а):

Сделайте плиз (Rips), хотяб 1,37Гб

Сейчас я выложу. рип. на 2 гб. HD качество



    Дорогой пользователь! Огромная просьба, поблагодарите релизера, оцените раздачу и оставьте свои комментарий, если Вы скачали Земное ядро через торрент бесплатно!!
    Комментировать посты могут только пользователи прошедшие не сложную регистрацию
    Показать сообщения:    


    Земное ядро через торрент
    Скачать бесплатно Земное ядро
    Земное ядро скачать торрент
    Земное ядро смотреть онлайн
    Cкачать фильм Земное ядро бесплатно
    Земное ядро скачать торрент в хорошем качестве
    Земное ядро смотреть онлайн бесплатно в хорошем качестве
    Вы не можете начинать темы
    Вы не можете отвечать на сообщения
    Вы не можете редактировать свои сообщения
    Вы не можете удалять свои сообщения
    Вы не можете голосовать в опросах
    Вы не можете прикреплять файлы к сообщениям
    Вы можете скачивать файлы
    Земное ядро / The Core [2003 г., фантастика, боевик, триллер, приключения, Blu-Ray , Дубляж] смотреть онлайн, скачать торрент picoco.icu