1 сезон

3 сезон

iTunes

1

iTunes

MVO

iTunes

13

1 сезон

RePack

30

Deluxe

pack

Лицензия

ВАЖНО

ИГРА 18+

pack

RePack

MK11

RePack

jed

RePack

fifa19

RePack

RDR2

RePack

NEED FOR SPEED™ PAYBACK

4 сезон

9 сезон

Бесстыжие 9 сезон

Все сериалы

все сериалы на PB.wtf

RePack

FAR CRY 5

Anonymous, добрый день, мы катастрофически не успеваем собрать деньги на оплату серверов, помогите нам пожалуйста 5,10,15р., для нас важна любая помощь . В качестве благодарности мы отключим Вам всю рекламу на сайте (укажите свой ник в строку Ваше имя)!

×
  
Magnet ссылка

ЗЛО / V/H/S (Мэттью Беттинелли, Адам Вингард, Дэвид Брукнер / Matt Bettinelli, Adam Wyngarden, David Bruckner) [2012, ужасы, триллер, DVD9] R5 pb.wtf

ЗЛО через торрент pb.wtf

Размер: 7.49 GB | Добавлен: 8 лет 9 мес. назад | Торрент скачан:243 раза
Скачать  

26-09-2012 19:48 ЗЛО Скачать торрент  


ЗЛО / V/H/S
«Оно пробудилось»
Страна: США
Студия: Bloody Disgusting, Collective, The
Жанр: ужасы, триллер
Год выпуска: 2012
Мировая премьера: 22 января 2012
Российская премьера: 6 сентября 2012
Дата выхода DVD: 27 сентября 2012
Дата выхода Blu-Ray: 27 сентября 2012
Продолжительность: 01:50:09
Перевод: Профессиональный (дублированный) [Лицензия]
Cубтитры: нет
Режиссер: Мэттью Беттинелли, Адам Вингард, Дэвид Брукнер / Matt Bettinelli, Adam Wyngarden, David Bruckner
В ролях: Кэлвин Ридер, Лэйн Хьюз, Адам Вингард, Ханна Файрман, Майк Донлан, Джо Сайкес, Дрю Сойер, Джессика Сэмс, Джо Сванберг, Софи Такал
Описание: В поисках редкой видеозаписи трое взломщиков пробираются в таинственный особняк. Хозяин ждет их у включенного телевизора и, похоже, не слишком радуется визиту. Он мертв уже несколько дней, а его странное наследие — коллекция старых видеозаписей, покоится неподалеку.
Желая отыскать нужную пленку, друзья просматривают весь архив. Каждая запись погружает их в новый кошмар, настолько реальный, будто он происходит у них на глазах. И с каждой минутой где-то совсем рядом пробуждается оно, неведомое и беспощадное ЗЛО.

Бонусы: нет

Релиз группы:
Качество: DVD9 R5
Формат: DVD-Video
Видео кодек: MPEG2
Аудио кодек: AC3
Видео: PAL 16:9 (720x576(0.858)) MPEG Video, 25,000 кадр/сек, 8900 Кбит/сек
Аудио: Russian (Dolby AC3, 6 ch) 448 Кбит/сек, 48,0 КГц



Title: Zlo.2012.DVD9
Size: 7.49 Gb ( 7 854 660,00 KBytes ) - DVD-9
Enabled regions: 1, 2, 3, 4, 5, 6, 7, 8

VTS_01 :
Play Length: 01:50:09
Video: PAL 16:9 (720x576) VBR, Auto Letterboxed
Audio:
Russian (Dolby AC3, 6 ch)

VTS_02 :
Play Length: 00:00:16+00:00:08+00:02:07
Video: PAL 16:9 (720x576) VBR, Auto Letterboxed
Audio:
Russian (Dolby AC3, 2 ch)

* Menus Information *

VIDEO_TS Menu
Video:
NTSC 4:3 (720x480) VBR
Auto Pan&Scan, Auto Letterboxed
Russian Language Unit :
Title Menu

VTS_01 Menu
Video:
PAL 16:9 (720x576) VBR
Auto Letterboxed
Audio:
Not specified (Dolby AC3, 2 ch)
Russian Language Unit :
Root Menu

VTS_02 Menu
Video:
NTSC 4:3 (720x480) VBR
Auto Pan&Scan, Auto Letterboxed
Language Unit :

Language Unit :

Language Unit :
Общее
Полное имя : J:\Новинки 2012\Zlo.2012.DVD9\VIDEO_TS\VTS_01_1.VOB
Формат : MPEG-PS
Размер файла : 1024 Мбайт
Продолжительность : 15 м.
Общий поток : 9502 Кбит/сек

Видео
Идентификатор : 224 (0xE0)
Формат : MPEG Video
Версия формата : Version 2
Профиль формата : Main@Main
Параметр BVOP формата : Да
Параметр матрицы формата : Выборочная
Продолжительность : 15 м.
Битрейт : 8900 Кбит/сек
Ширина : 720 пикселей
Высота : 576 пикселей
Соотношение сторон : 16:9
Частота кадров : 25,000 кадров/сек
Стандарт вещания : PAL
Цветовое пространство : YUV
Субдискретизация насыщенности : 4:2:0
Битовая глубина : 8 бит
Тип развёртки : Чересстрочная
Порядок развёртки : Верхнее поле первое
Метод сжатия : С потерями
Бит/(Пиксели*Кадры) : 0.858
Размер потока : 955 Мбайт (93%)

Аудио
Идентификатор : 189 (0xBD)-128 (0x80)
Формат : AC-3
Формат/Информация : Audio Coding 3
Расширение режима : CM (complete main)
Параметр Endianness формата : Big
Режим смешивания : DVD-Video
Продолжительность : 15 м.
Вид битрейта : Постоянный
Битрейт : 448 Кбит/сек
Каналы : 6 каналов
Расположение каналов : Front: L C R, Side: L R, LFE
Частота : 48,0 КГц
Битовая глубина : 16 бит
Метод сжатия : С потерями
Размер потока : 48,3 Мбайт (5%)










pb.wtf



Скачать ЗЛО через торрент http://i40.fastpic.ru/big/2012/0926/4c/abb6265aa01c80d9e4ac85a7bf48344c.jpg Скачать фильм ЗЛО через торрент бесплантно в хорошем качестве Описание: В поисках редкой видеозаписи трое взломщиков пробираются в таинственный особняк. Хозяин ждет их у включенного телевизора и, ... 10 10 2
Info! Золотая раздача, скачанное не засчитывается.
Торрент: Зарегистрирован [2012-09-26 19:48] · скачан: 243 раз
Статус: √ проверено
Размер: 7.49 GB
Как cкачать? Как скачать ЗЛО через торрент | UTorrent

% Раздел Тема Автор DL S | L
Фильмы 2013 [DVDrip, WEB-DLRip, HDrip] [ 2.1 GB ] ЗЛО 2 / V/H/S/2 [2013 BDRip-AVC] Dub + Original + Sub potroks Скачать
1 | 0

28-11-2019 20:33  

Отключить всю рекламу на сайте

27-09-2012 04:48 ЗЛО Скачать торрент  

Говно,а не фильм pb.wtf



14-10-2012 16:38 ЗЛО Скачать торрент  

двд-5 будет. :shoot2: pb.wtf



01-01-2013 14:18 ЗЛО Скачать торрент  

скорости пожалуйстаpb.wtf



    Дорогой пользователь! Огромная просьба, поблагодарите релизера, оцените раздачу и оставьте свои комментарий, если Вы скачали ЗЛО через торрент бесплатно! Внесите свою лепту в развитие PiratBit!
    Комментировать посты могут только пользователи прошедшие не сложную регистрацию
    Показать сообщения:    

    ЗЛО через торрент
    Скачать бесплатно ЗЛО
    ЗЛО скачать торрент
    ЗЛО смотреть онлайн
    Cкачать фильм ЗЛО бесплатно
    ЗЛО скачать торрент в хорошем качестве
    ЗЛО смотреть онлайн бесплатно в хорошем качестве


    Вы не можете начинать темы
    Вы не можете отвечать на сообщения
    Вы не можете редактировать свои сообщения
    Вы не можете удалять свои сообщения
    Вы не можете голосовать в опросах
    Вы не можете прикреплять файлы к сообщениям
    Вы можете скачивать файлы