2 сезон

iTunes

1 сезон

1

iTunes

iTunes

iTunes

1 сезон

RePack

30

ИГРА 18+

pack

ВАЖНО

!!Акция!!

Alien_RageХит недели

RePack

MK11
pack

Забери бонус

RePack

jed

!!Акция!!

Alien_Rage

RePack

fifa19

RePack

Assassins Creed: Odyssey

RePack

NEED FOR SPEED™ PAYBACK

4 сезон

9 сезон

Бесстыжие 9 сезон

Все сериалы

все сериалы на PB.wtf

RePack

FAR CRY 5
  

Адвокат дьявола / The Devil's Advocate (Тейлор Хэкфорд) [1997 г., Триллер, Драма, Детектив, BDRip 1080p] DUB + AVO + MVO + DVO + Original Sub pb.wtf

Адвокат дьявола через торрент pb.wtf

Размер: 23.38 GB | Добавлен: 8 лет 1 мес. назад | Торрент скачан:18 раз
Скачать  

28-09-2012 12:22 Адвокат дьявола Скачать торрент  

Адвокат дьявола / The Devil's AdvocateГод выпуска: 1997
Страна: США
Жанр: Триллер, Драма, Детектив
Продолжительность: 02:23:55
Перевод: Дубляж

Режиссер: Тейлор Хэкфорд

В ролях: Киану Ривз, Аль Пачино, Шарлиз Терон, Джеффри Джонс, Джудит Айви, Конни Нильсен, Крэйг Т. Нельсон, Тамара Тюни

Описание: В Нью-Йорк по приглашению главы крупного юридического концерна прибывает Кевин Ломакс, молодой адвокат. До этого он был известен тем, что защищал исключительно негодяев и притом не проиграл ни одного процесса. На новом месте работы он вполне счастлив, он живет в роскошной квартире с любящей женой, его окружают интересные люд

Качество: BDRip 1080p
Формат: MKV
Видео кодек: MPEG4 AVC/H.264
Аудио кодек: DTS/AC3
Видео: 1920x800 at 23.976 fps, x264@L4.1, 2pass, ~15.3 Mbps avg
Аудио#1: Russian: 48 kHz, AC3, 3/2 (L,C,R,l,r) + LFE ch, ~384.00 kbps avg |Дубляж, R5|
Аудио#2: Russian: 48 kHz, DTS, 3/2 (L,C,R,l,r) + LFE ch, ~1510.00 kbps avg |Многоголосый закадровый, Карусель|
Аудио#3: Russian: 48 kHz, DTS, 3/2 (L,C,R,l,r) + LFE ch, ~1510.00 kbps avg |Одноголосый закадровый, А.Гаврилов|
Аудио#4: Russian: 48 kHz, DTS, 3/2 (L,C,R,l,r) + LFE ch, ~1510.00 kbps avg |Одноголосый закадровый, Ю.Живов|
Аудио#5: Russian: 48 kHz, AC3, 2/0 (L,R) ch, ~192.00 kbps avg |Многоголосый закадровый, НТВ|
Аудио#6: Russian: 48 kHz, AC3, 2/0 (L,R) ch, ~192.00 kbps avg |Многоголосый закадровый, Телеканал Россия|
Аудио#7: Russian: 48 kHz, AC3, 2/0 (L,R) ch, ~192.00 kbps avg |Двухголосый закадровый, ТВ1000|
Аудио#8: Russian: 48 kHz, AC3, 2/0 (L,R) ch, ~192.00 kbps avg |Одноголосый закадровый, С.Визгунов|
Аудио#9: Russian: 48 kHz, AC3, 3/2 (L,C,R,l,r) + LFE ch, ~384.00 kbps avg |Одноголосый закадровый, В.Завгородний|
Аудио#10: Russian: 48 kHz, AC3, 2/0 (L,R) ch, ~192.00 kbps avg |Одноголосый закадровый, М.Латышев|
Аудио#11: Ukrainian: 48 kHz, AC3, 2/0 (L,R) ch, ~192.00 kbps avg |Многоголосый закадровый, 1+1|
Субтитры: Русские (полные (x2), форсированные), Английские
General
Unique ID : 176765945733962156182713229826253413379 (0x84FBE1FF6C4E10C4B91797FFB9A45C03)
Complete name : F:\The.Devil's.Advocate.1997.UNRATED.1080p.BluRay.10xRus.Ukr.Eng.HDCLUB.mkv
Format : Matroska
Format version : Version 2
File size : 23.4 GiB
Duration : 2h 23mn
Overall bit rate : 23.3 Mbps
Movie name : The Devil's Advocate (1997) [Unrated Director's Cut] - Release for HDCLUB
Encoded date : UTC 2012-09-24 12:06:21
Writing application : mkvmerge v3.4.0 ('Rapunzel') сборка от May 15 2010 09:38:20
Writing library : libebml v0.8.0 + libmatroska v0.9.0

Video
ID : 1
Format : AVC
Format/Info : Advanced Video Codec
Format profile : High@L4.1
Format settings, CABAC : Yes
Format settings, ReFrames : 5 frames
Codec ID : V_MPEG4/ISO/AVC
Duration : 2h 23mn
Bit rate : 15.3 Mbps
Width : 1 920 pixels
Height : 800 pixels
Display aspect ratio : 2.40:1
Frame rate mode : Constant
Frame rate : 23.976 fps
Color space : YUV
Chroma subsampling : 4:2:0
Bit depth : 8 bits
Scan type : Progressive
Bits/(Pixel*Frame) : 0.415
Stream size : 14.9 GiB (64%)
Writing library : x264 core 125 r2208 d9d2288
Encoding settings : cabac=1 / ref=5 / deblock=1:-3:-3 / analyse=0x3:0x113 / me=tesa / subme=11 / psy=1 / psy_rd=1.05:0.00 / mixed_ref=1 / me_range=16 / chroma_me=1 / trellis=2 / 8x8dct=1 / cqm=0 / deadzone=21,11 / fast_pskip=0 / chroma_qp_offset=-2 / threads=12 / lookahead_threads=2 / sliced_threads=0 / nr=0 / decimate=0 / interlaced=0 / bluray_compat=0 / constrained_intra=0 / bframes=9 / b_pyramid=2 / b_adapt=2 / b_bias=0 / direct=3 / weightb=1 / open_gop=0 / weightp=2 / keyint=250 / keyint_min=23 / scenecut=40 / intra_refresh=0 / rc=2pass / mbtree=0 / bitrate=15300 / ratetol=1.0 / qcomp=0.60 / qpmin=0 / qpmax=69 / qpstep=4 / cplxblur=20.0 / qblur=0.5 / ip_ratio=1.40 / pb_ratio=1.30 / aq=1:0.60
Language : English
Default : No
Forced : No

Audio #1
ID : 2
Format : AC-3
Format/Info : Audio Coding 3
Mode extension : CM (complete main)
Format settings, Endianness : Big
Codec ID : A_AC3
Duration : 2h 23mn
Bit rate mode : Constant
Bit rate : 384 Kbps
Channel(s) : 6 channels
Channel positions : Front: L C R, Side: L R, LFE
Sampling rate : 48.0 KHz
Bit depth : 16 bits
Compression mode : Lossy
Stream size : 395 MiB (2%)
Title : Дубляж, R5
Language : Russian
Default : Yes
Forced : No

Audio #2
ID : 3
Format : DTS
Format/Info : Digital Theater Systems
Codec ID : A_DTS
Duration : 2h 23mn
Bit rate mode : Constant
Bit rate : 1 510 Kbps
Channel(s) : 6 channels
Channel positions : Front: L C R, Side: L R, LFE
Sampling rate : 48.0 KHz
Bit depth : 24 bits
Compression mode : Lossy
Stream size : 1.52 GiB (6%)
Title : Многоголосый закадровый, Карусель
Language : Russian
Default : No
Forced : No

Audio #3
ID : 4
Format : DTS
Format/Info : Digital Theater Systems
Codec ID : A_DTS
Duration : 2h 23mn
Bit rate mode : Constant
Bit rate : 1 510 Kbps
Channel(s) : 6 channels
Channel positions : Front: L C R, Side: L R, LFE
Sampling rate : 48.0 KHz
Bit depth : 24 bits
Compression mode : Lossy
Stream size : 1.52 GiB (6%)
Title : Одноголосый закадровый, А.Гаврилов
Language : Russian
Default : No
Forced : No

Audio #4
ID : 5
Format : DTS
Format/Info : Digital Theater Systems
Codec ID : A_DTS
Duration : 2h 23mn
Bit rate mode : Constant
Bit rate : 1 510 Kbps
Channel(s) : 6 channels
Channel positions : Front: L C R, Side: L R, LFE
Sampling rate : 48.0 KHz
Bit depth : 24 bits
Compression mode : Lossy
Stream size : 1.52 GiB (6%)
Title : Одноголосый закадровый, Ю.Живов
Language : Russian
Default : No
Forced : No

Audio #5
ID : 6
Format : AC-3
Format/Info : Audio Coding 3
Mode extension : CM (complete main)
Format settings, Endianness : Big
Codec ID : A_AC3
Duration : 2h 23mn
Bit rate mode : Constant
Bit rate : 192 Kbps
Channel(s) : 2 channels
Channel positions : Front: L R
Sampling rate : 48.0 KHz
Bit depth : 16 bits
Compression mode : Lossy
Stream size : 198 MiB (1%)
Title : Многоголосый закадровый, НТВ
Language : Russian
Default : No
Forced : No

Audio #6
ID : 7
Format : AC-3
Format/Info : Audio Coding 3
Mode extension : CM (complete main)
Format settings, Endianness : Big
Codec ID : A_AC3
Duration : 2h 23mn
Bit rate mode : Constant
Bit rate : 192 Kbps
Channel(s) : 2 channels
Channel positions : Front: L R
Sampling rate : 48.0 KHz
Bit depth : 16 bits
Compression mode : Lossy
Stream size : 198 MiB (1%)
Title : Многоголосый закадровый, Телеканал Россия
Language : Russian
Default : No
Forced : No

Audio #7
ID : 8
Format : AC-3
Format/Info : Audio Coding 3
Mode extension : CM (complete main)
Format settings, Endianness : Big
Codec ID : A_AC3
Duration : 2h 23mn
Bit rate mode : Constant
Bit rate : 192 Kbps
Channel(s) : 2 channels
Channel positions : Front: L R
Sampling rate : 48.0 KHz
Bit depth : 16 bits
Compression mode : Lossy
Stream size : 198 MiB (1%)
Title : Двухголосый закадровый, ТВ1000
Language : Russian
Default : No
Forced : No

Audio #8
ID : 9
Format : AC-3
Format/Info : Audio Coding 3
Mode extension : CM (complete main)
Format settings, Endianness : Big
Codec ID : A_AC3
Duration : 2h 23mn
Bit rate mode : Constant
Bit rate : 192 Kbps
Channel(s) : 2 channels
Channel positions : Front: L R
Sampling rate : 48.0 KHz
Bit depth : 16 bits
Compression mode : Lossy
Stream size : 198 MiB (1%)
Title : Одноголосый закадровый, С.Визгунов
Language : Russian
Default : No
Forced : No

Audio #9
ID : 10
Format : AC-3
Format/Info : Audio Coding 3
Mode extension : CM (complete main)
Format settings, Endianness : Big
Codec ID : A_AC3
Duration : 2h 23mn
Bit rate mode : Constant
Bit rate : 384 Kbps
Channel(s) : 6 channels
Channel positions : Front: L C R, Side: L R, LFE
Sampling rate : 48.0 KHz
Bit depth : 16 bits
Compression mode : Lossy
Stream size : 395 MiB (2%)
Title : Одноголосый закадровый, В.Завгородний
Language : Russian
Default : No
Forced : No

Audio #10
ID : 11
Format : AC-3
Format/Info : Audio Coding 3
Mode extension : CM (complete main)
Format settings, Endianness : Big
Codec ID : A_AC3
Duration : 2h 23mn
Bit rate mode : Constant
Bit rate : 192 Kbps
Channel(s) : 2 channels
Channel positions : Front: L R
Sampling rate : 48.0 KHz
Bit depth : 16 bits
Compression mode : Lossy
Stream size : 198 MiB (1%)
Title : Одноголосый закадровый, М.Латышев
Language : Russian
Default : No
Forced : No

Audio #11
ID : 12
Format : AC-3
Format/Info : Audio Coding 3
Mode extension : CM (complete main)
Format settings, Endianness : Big
Codec ID : A_AC3
Duration : 2h 23mn
Bit rate mode : Constant
Bit rate : 192 Kbps
Channel(s) : 2 channels
Channel positions : Front: L R
Sampling rate : 48.0 KHz
Bit depth : 16 bits
Compression mode : Lossy
Stream size : 198 MiB (1%)
Title : Многоголосый закадровый, 1+1
Language : Ukrainian
Default : No
Forced : No

Audio #12
ID : 13
Format : DTS
Format/Info : Digital Theater Systems
Codec ID : A_DTS
Duration : 2h 23mn
Bit rate mode : Constant
Bit rate : 1 510 Kbps
Channel(s) : 6 channels
Channel positions : Front: L C R, Side: L R, LFE
Sampling rate : 48.0 KHz
Bit depth : 24 bits
Compression mode : Lossy
Stream size : 1.52 GiB (6%)
Language : English
Default : No
Forced : No

Text #1
ID : 14
Format : UTF-8
Codec ID : S_TEXT/UTF8
Codec ID/Info : UTF-8 Plain Text
Title : Forced
Language : Russian
Default : Yes
Forced : No

Text #2
ID : 15
Format : UTF-8
Codec ID : S_TEXT/UTF8
Codec ID/Info : UTF-8 Plain Text
Title : Full #1
Language : Russian
Default : No
Forced : No

Text #3
ID : 16
Format : UTF-8
Codec ID : S_TEXT/UTF8
Codec ID/Info : UTF-8 Plain Text
Title : Full #2
Language : Russian
Default : No
Forced : No

Text #4
ID : 17
Format : UTF-8
Codec ID : S_TEXT/UTF8
Codec ID/Info : UTF-8 Plain Text
Language : English
Default : No
Forced : No

Menu
00:00:00.000 : en:00:00:00.000
00:03:25.205 : en:00:03:25.205
00:04:57.506 : en:00:04:57.506
00:09:07.213 : en:00:09:07.213
00:12:06.225 : en:00:12:06.225
00:14:58.856 : en:00:14:58.856
00:18:13.592 : en:00:18:13.592
00:20:52.585 : en:00:20:52.585
00:26:20.621 : en:00:26:20.621
00:30:09.016 : en:00:30:09.016
00:33:45.482 : en:00:33:45.482
00:36:10.960 : en:00:36:10.960
00:38:31.851 : en:00:38:31.851
00:41:35.785 : en:00:41:35.785
00:46:58.858 : en:00:46:58.858
00:49:17.121 : en:00:49:17.121
00:53:22.658 : en:00:53:22.658
00:56:24.339 : en:00:56:24.339
00:58:35.971 : en:00:58:35.971
01:03:40.316 : en:01:03:40.316
01:06:08.590 : en:01:06:08.590
01:10:25.012 : en:01:10:25.012
01:12:54.287 : en:01:12:54.287
01:14:30.675 : en:01:14:30.675
01:17:15.297 : en:01:17:15.297
01:19:17.378 : en:01:19:17.378
01:22:14.388 : en:01:22:14.388
01:25:59.988 : en:01:25:59.988
01:28:50.033 : en:01:28:50.033
01:33:36.152 : en:01:33:36.152
01:38:52.635 : en:01:38:52.635
01:43:14.355 : en:01:43:14.355
01:45:40.960 : en:01:45:40.960
01:48:28.377 : en:01:48:28.377
01:53:21.253 : en:01:53:21.253
01:55:40.350 : en:01:55:40.350
01:56:59.137 : en:01:56:59.137
02:01:48.134 : en:02:01:48.134
02:05:55.798 : en:02:05:55.798
02:09:59.792 : en:02:09:59.792
02:12:23.853 : en:02:12:23.853
02:13:40.095 : en:02:13:40.095
02:16:36.647 : en:02:16:36.647

pb.wtf



Скачать Адвокат дьявола через торрент http://i43.fastpic.ru/big/2012/0923/95/5ff37084b905ef2f66cedf1895029995.png Скачать фильм Адвокат дьявола через торрент бесплантно в хорошем качестве Описание: В Нью-Йорк по приглашению главы крупного юридического концерна прибывает Кевин Ломакс, молодой адвокат. До этого он был известен ... 10 10 2
Info! Золотая раздача, скачанное не засчитывается.
Торрент: Зарегистрирован [2012-09-28 12:22] · скачан: 18 раз
Статус: √ проверено
Размер: 23.38 GB
Как cкачать? Как скачать Адвокат дьявола через торрент | qTorrent

28-11-2019 20:33  

Отключить всю рекламу на сайте

18-02-2016 09:22 Адвокат дьявола Скачать торрент  

Люди, встаньте пожалуйста на раздачу.pb.wtf



    Дорогой пользователь! Огромная просьба, поблагодарите релизера, оцените раздачу и оставьте свои комментарий, если Вы скачали Адвокат дьявола через торрент бесплатно! Внесите свою лепту в развитие PiratBit!
    Комментировать посты могут только пользователи прошедшие не сложную регистрацию
    Показать сообщения:    

    Адвокат дьявола через торрент
    Скачать бесплатно Адвокат дьявола
    Адвокат дьявола скачать торрент
    Адвокат дьявола смотреть онлайн
    Cкачать фильм Адвокат дьявола бесплатно
    Адвокат дьявола скачать торрент в хорошем качестве
    Адвокат дьявола смотреть онлайн бесплатно в хорошем качестве


    Вы не можете начинать темы
    Вы не можете отвечать на сообщения
    Вы не можете редактировать свои сообщения
    Вы не можете удалять свои сообщения
    Вы не можете голосовать в опросах
    Вы не можете прикреплять файлы к сообщениям
    Вы можете скачивать файлы