MEGA SALE -50% FORZA HORIZON 4 ULTIMATE+ВСЕ DLC+ОНЛАЙН всего за 599р. 299 руб. (супер цена). Внимание количество ограничено!!!

iTunes

1+1

iTunes

мы

iTunes

1

iTunes

Чернобыль

1 сезон

Ральф против интернета

Лицензия

ПШазам

Лицензия

Игра престолов

Лицензия

30
pack

ВАЖНО

!!Акция!!

Alien_RageХит недели

RePack

Resident Evil 21

ИГРА 18+

pack

RePack

Metro:Exodus

!!Акция!!

Alien_Rage

RePack

fifa19

RePack

Assassins Creed: Odyssey

RePack

NEED FOR SPEED™ PAYBACK

3 сезон

9 сезон

Бесстыжие 9 сезон

Все сериалы

все сериалы на PB.wtf

RePack

FAR CRY 5
Ребята, катастрофически не хватает 7730р. для оплаты серверов за ИЮЛЬ (всвязи с блокировками трафик упал в 3 раза), 1-2р., выручайте.
  

Футбольные гладиаторы / Awaydays (Пэт Холден) [2009 г., драма, криминал, HDRip, MVO] pb.wtf

Футбольные гладиаторы через торрент pb.wtf

Размер: 2.19 GB | Добавлен: 6 лет 10 мес. назад | Торрент скачан:131 раз
Скачать  

28-09-2012 12:35 Футбольные гладиаторы Скачать торрент  

Футбольные гладиаторы / Awaydays

Год выпуска: 2009
Страна: Великобритания
Жанр: драма, криминал
Продолжительность: 01:45:01
Перевод: Профессиональный многоголосый

Режиссер: Пэт Холден
Продюссер: Дэвид А. Хьюз, Stephen Cheers, Ховард Клейн
Сценарий: Кевин Сэмпсон

Премьера в мире: 22 января 2009

Мировой рейтинг IMDB 5.70 (1 461)


В ролях: Никки Белл, Лайам Бойл, Стивен Грэм, Оливер Ли, Ли Бэттл, Майкл Райан, Шон Уорд, Anthony Borrows, Дэвид Барлоу, Эллиот Хьюз

Описание: Взгляд на британскую молодёжь времён первых лет реформ премьер-министра Маргарет Тэтчер. Не видя для себя никаких перспектив, молодые люди ищут спасение от рутинной работы с 9 до 5 в альтернативном образе жизни, оставшемся в истории как: «секс, наркотики и рок-н-ролл».

Качество: HDRip
Формат: AVI
Видео кодек: XviD
Аудио кодек: AC3
Видео: 704x384 (1.83:1), 24 fps, XviD build 65 ~2078 kbps avg, 0.32 bit/pixel
Аудио#1: русский 48 kHz, AC3 Dolby Digital, 3/2 (L,C,R,l,r) + LFE ch, ~448.00 kbps avg |MVO|
Аудио#2: английский 48 kHz, AC3 Dolby Digital, 3/2 (L,C,R,l,r) + LFE ch, ~448.00 kbps avg |Original|






Общее
Полное имя : E:\Торренты\Piratbit\Awaydays.avi
Формат : AVI
Формат/Информация : Audio Video Interleave
Профиль формата : OpenDML
Размер файла : 2,19 Гбайт
Продолжительность : 1 ч. 45 м.
Общий поток : 2981 Кбит/сек
Программа кодирования : VirtualDubModRus 1.5.10.2 (build 2542/release)

Видео
Идентификатор : 0
Формат : MPEG-4 Visual
Профиль формата : Advanced Simple@L5
Параметр BVOP формата : 2
Параметр QPel формата : Нет
Параметр GMC формата : Без точки перехода
Параметр матрицы формата : Выборочная
Идентификатор кодека : XVID
Идентификатор кодека/Подсказка : XviD
Продолжительность : 1 ч. 45 м.
Битрейт : 2067 Кбит/сек
Ширина : 704 пикселя
Высота : 384 пикселя
Соотношение сторон : 1,85:1
Частота кадров : 24,000 кадра/сек
Цветовое пространство : YUV
Субдискретизация насыщенности : 4:2:0
Битовая глубина : 8 бит
Тип развёртки : Прогрессивная
Метод сжатия : С потерями
Бит/(Пиксели*Кадры) : 0.319
Размер потока : 1,52 Гбайт (69%)
Библиотека кодирования : XviD 65

Аудио #1
Идентификатор : 1
Формат : AC-3
Формат/Информация : Audio Coding 3
Расширение режима : CM (complete main)
Параметр Endianness формата : Big
Идентификатор кодека : 2000
Продолжительность : 1 ч. 45 м.
Вид битрейта : Постоянный
Битрейт : 448 Кбит/сек
Каналы : 6 каналов
Расположение каналов : Front: L C R, Side: L R, LFE
Частота : 48,0 КГц
Битовая глубина : 16 бит
Метод сжатия : С потерями
Размер потока : 337 Мбайт (15%)
Выравнивание : Разделение по промежуткам
Продолжительность промежутка : 42 мс. (1,00 видеокадр)
Время предзагрузки промежутка : 500 мс.

Аудио #2
Идентификатор : 2
Формат : AC-3
Формат/Информация : Audio Coding 3
Расширение режима : CM (complete main)
Параметр Endianness формата : Big
Идентификатор кодека : 2000
Продолжительность : 1 ч. 45 м.
Вид битрейта : Постоянный
Битрейт : 448 Кбит/сек
Каналы : 6 каналов
Расположение каналов : Front: L C R, Side: L R, LFE
Частота : 48,0 КГц
Битовая глубина : 16 бит
Метод сжатия : С потерями
Размер потока : 337 Мбайт (15%)
Выравнивание : Разделение по промежуткам
Продолжительность промежутка : 42 мс. (1,00 видеокадр)
Время предзагрузки промежутка : 500 мс.

pb.wtf



Скачать Футбольные гладиаторы через торрент http://pic.kartinco.top/images/1/y99swwjead.jpg Скачать фильм Футбольные гладиаторы через торрент бесплантно в хорошем качестве Описание: Взгляд на британскую молодёжь времён первых лет реформ премьер-министра Маргарет Тэтчер. Не видя для себя никаких перспектив, ... 5 10 1
Info! Золотая раздача, скачанное не засчитывается.
Торрент: Зарегистрирован [2012-09-28 12:35] · скачан: 131 раз
Статус: √ проверено
Размер: 2.19 GB
Как cкачать? Как скачать Футбольные гладиаторы через торрент | qTorrent



Последний раз редактировалось: lev1244v (2012-09-28 12:41), всего редактировалось 1 раз


>> Регистрируемся здесь <<






Отзывы и комментарии о схеме читаем и пишем здесь: ---> Отзывы и комментарии о схеме

Новые благодарочки в телеграм довольных пользователей:
скриншот   скриншот   скриншот   скриншот   скриншот

28-09-2012 12:39 Футбольные гладиаторы Скачать торрент  

Приятного просмотра! pb.wtf



28-09-2012 13:17 Футбольные гладиаторы Скачать торрент  

как фильм то,стоящий?pb.wtf



28-09-2012 14:42 Футбольные гладиаторы Скачать торрент  

нормальный фильм . В Англии лет 15 назад такое было , а теперь у нас своих дебилов хватаетpb.wtf



28-09-2012 15:31 Футбольные гладиаторы Скачать торрент  

saratov-KRAZ писал(а):

нормальный фильм . В Англии лет 15 назад такое было , а теперь у нас своих дебилов хватает

фильм еще не смотрел,но с удовольствием гляну.А то,что у нас хватает,а в других местах нет (и в той же Англии нет) это нет так,есть Вест хэм - Миллоу,в прошлом году они играли в 1-й лиге и ТВ отказался этот матч транслировать,это как Торпедо - Динамо (и в плпне соперничества и в плане того,что если не сейчас,то неизвестно когда пересекутся Хулиганы зеленых улиц тому показатель),так же и в Турции,Аргентине,в Италии от части,недавний матч сборных Италия - Сербия,Партизан - Цверна Звезда.Вообщем это везде,просто на это закрывают глаза,ну или на стадионах все тише,кроме нецензурной лексике и банеров (не имею ввиду как в театре),но за стадионом все так жеpb.wtf



    Дорогой пользователь! Огромная просьба, поблагодарите релизера, оцените раздачу и оставьте свои комментарий, если Вы скачали Футбольные гладиаторы через торрент бесплатно! Внесите свою лепту в развитие PiratBit!
    Комментировать посты могут только пользователи прошедшие не сложную регистрацию
    Показать сообщения:    

    Футбольные гладиаторы через торрент
    Скачать бесплатно Футбольные гладиаторы
    Футбольные гладиаторы скачать торрент
    Футбольные гладиаторы смотреть онлайн
    Cкачать фильм Футбольные гладиаторы бесплатно
    Футбольные гладиаторы скачать торрент в хорошем качестве
    Футбольные гладиаторы смотреть онлайн бесплатно в хорошем качестве


    Вы не можете начинать темы
    Вы не можете отвечать на сообщения
    Вы не можете редактировать свои сообщения
    Вы не можете удалять свои сообщения
    Вы не можете голосовать в опросах
    Вы не можете прикреплять файлы к сообщениям
    Вы можете скачивать файлы