2 сезон

iTunes

MVO

1

2 сезон

iTunes

iTunes

1 сезон

RePack

30

Новинка

ВАЖНО

ИГРА 18+

pack

RePack

MK11
pack

Легкие деньги

RePack

jed

RePack

fifa19

RePack

RDR2

RePack

NEED FOR SPEED™ PAYBACK

4 сезон

9 сезон

Бесстыжие 9 сезон

Все сериалы

все сериалы на PB.wtf

RePack

FAR CRY 5

Anonymous, добрый вечер, мы не успеваем собрать деньги на оплату серверов за декабрь и январь, помогите нам пожалуйста в это трудное время. В качестве благодарности мы отключим Вам всю рекламу на сайте (укажите свой ник в строку Ваше имя)!

×
  
Magnet ссылка

Шок и трепет: История электричества / Shock and Awe: The Story of Electricity (Tim Usborne.) [2011 г., документальный, HDTV, VO] pb.wtf

Шок и трепет: История электричества через торрент pb.wtf

Размер: 4.88 GB | Добавлен: 8 лет 3 мес. назад | Торрент скачан:204 раза
Скачать  

30-09-2012 06:07 Шок и трепет: История электричества Скачать торрент  

Шок и трепет: История электричества / Shock and Awe: The Story of Electricity

Год выпуска: 2011
Страна: Великобритания
Жанр: документальный
Продолжительность: 3х00:60:00
Перевод: Профессиональный одноголосый

Режиссер: Tim Usborne.
Продюссер: Steve Crabtree, Tina Fletcher-Hill, Катрин МакКарти

Мировой рейтинг IMDB 8.10 (45)


В ролях: Jim Al-Khalili

Описание: Электричество не только дает нам тепло и свет, но и обеспечивает связь во всем мире посредством интернета, теле- и радиовещания...

Качество: HDTV
Формат: MKV
Видео кодек: H.264x
Аудио кодек: AC3
Видео: AVC at 3300 Кбит/с : 1280 x 720 (1.778) at 25.000 fps
Аудио#1: AC-3 at 224 Кбит/сек : 2 канала, 48,0 КГц Language: Русский
Аудио#2: AC-3 at 224 Кбит/сек : 2 канала, 48,0 КГц Language: English
Общее
Уникальный идентификатор : 187406494497631150652510701136715094271 (0x8CFD2D8E4C962549A29E4402E3BA98FF)
Полное имя : D:\BBC Shock and Awe The Story of Electricity\1. Shock and Awe - The Story of Electricity [Spark].mkv
Формат : Matroska
Версия формата : Version 2
Размер файла : 1,56 Гбайт
Продолжительность : 59 м.
Общий поток : 3764 Кбит/сек
Дата кодирования : UTC 2012-01-26 19:35:10
Программа кодирования : mkvmerge v5.1.0 ('And so it goes') built on Nov 28 2011 23:58:28
Библиотека кодирования : libebml v1.2.3 + libmatroska v1.3.0

Видео
Идентификатор : 1
Формат : AVC
Формат/Информация : Advanced Video Codec
Профиль формата : High@L4.1
Параметр CABAC формата : Да
Параметр ReFrames формата : 4 кадра
Идентификатор кодека : V_MPEG4/ISO/AVC
Продолжительность : 59 м.
Битрейт : 3300 Кбит/сек
Ширина : 1280 пикселей
Высота : 720 пикселей
Соотношение сторон : 16:9
Режим частоты кадров : Постоянный
Частота кадров : 25,000 кадров/сек
Цветовое пространство : YUV
Субдискретизация насыщенности : 4:2:0
Битовая глубина : 8 бит
Тип развёртки : Прогрессивная
Бит/(Пиксели*Кадры) : 0.143
Размер потока : 1,34 Гбайт (86%)
Библиотека кодирования : x264 core 116 r2074 2641b9e
Настройки программы : cabac=1 / ref=2 / deblock=1:0:0 / analyse=0x3:0x113 / me=hex / subme=4 / psy=1 / psy_rd=1.00:0.00 / mixed_ref=1 / me_range=16 / chroma_me=1 / trellis=0 / 8x8dct=1 / cqm=0 / deadzone=21,11 / fast_pskip=1 / chroma_qp_offset=0 / threads=7 / sliced_threads=0 / nr=0 / decimate=1 / interlaced=0 / bluray_compat=0 / constrained_intra=0 / bframes=3 / b_pyramid=2 / b_adapt=1 / b_bias=0 / direct=3 / weightb=1 / open_gop=0 / weightp=2 / keyint=250 / keyint_min=25 / scenecut=40 / intra_refresh=0 / rc_lookahead=40 / rc=abr / mbtree=1 / bitrate=3300 / ratetol=1.0 / qcomp=0.60 / qpmin=10 / qpmax=51 / qpstep=4 / vbv_maxrate=50000 / vbv_bufsize=50000 / nal_hrd=none / ip_ratio=1.40 / aq=1:1.00
Default : Нет
Forced : Нет

Аудио #1
Идентификатор : 2
Формат : AC-3
Формат/Информация : Audio Coding 3
Расширение режима : CM (complete main)
Параметр Endianness формата : Big
Идентификатор кодека : A_AC3
Продолжительность : 59 м.
Вид битрейта : Постоянный
Битрейт : 224 Кбит/сек
Каналы : 2 канала
Расположение каналов : Front: L R
Частота : 48,0 КГц
Битовая глубина : 16 бит
Метод сжатия : С потерями
Размер потока : 95,0 Мбайт (6%)
Язык : Russian
Default : Нет
Forced : Нет

Аудио #2
Идентификатор : 3
Формат : AC-3
Формат/Информация : Audio Coding 3
Расширение режима : CM (complete main)
Параметр Endianness формата : Big
Идентификатор кодека : A_AC3
Продолжительность : 59 м.
Вид битрейта : Постоянный
Битрейт : 224 Кбит/сек
Каналы : 2 канала
Расположение каналов : Front: L R
Частота : 48,0 КГц
Битовая глубина : 16 бит
Метод сжатия : С потерями
Размер потока : 95,0 Мбайт (6%)
Язык : English
Default : Нет
Forced : Нет

pb.wtf



Скачать Шок и трепет: История электричества через торрент http://i31.fastpic.ru/big/2012/0126/8c/ac19ecce368b67b18ed61c28e498208c.png Скачать фильм Шок и трепет: История электричества через торрент бесплантно в хорошем качестве Описание: Электричество не только дает нам тепло и свет, но и обеспечивает связь во всем мире посредством интернета, теле- и ... 10 10 1
Info! Золотая раздача, скачанное не засчитывается.
Торрент: Зарегистрирован [2012-09-30 06:07] · скачан: 204 раз
Статус: √ проверено
Размер: 4.88 GB
Как cкачать? Как скачать Шок и трепет: История электричества через торрент | UTorrent

% Раздел Тема Автор DL S | L
BBC [ 1.64 GB ] Электричество. История / Шок и трепет / Shock and Awe. The story of Electricity / Серии: 1-3 из 3 [2011 документальный исторический научно-популярный TVRip] markfiter Скачать
1 | 0

28-11-2019 20:33  

Отключить всю рекламу на сайте


30-09-2012 08:09 Шок и трепет: История электричества Скачать торрент  

спасибо посмотрим наверно интерестноpb.wtf



    Дорогой пользователь! Огромная просьба, поблагодарите релизера, оцените раздачу и оставьте свои комментарий, если Вы скачали Шок и трепет: История электричества через торрент бесплатно! Внесите свою лепту в развитие PiratBit!
    Комментировать посты могут только пользователи прошедшие не сложную регистрацию
    Показать сообщения:    

    Шок и трепет: История электричества через торрент
    Скачать бесплатно Шок и трепет: История электричества
    Шок и трепет: История электричества скачать торрент
    Шок и трепет: История электричества смотреть онлайн
    Cкачать фильм Шок и трепет: История электричества бесплатно
    Шок и трепет: История электричества скачать торрент в хорошем качестве
    Шок и трепет: История электричества смотреть онлайн бесплатно в хорошем качестве


    Вы не можете начинать темы
    Вы не можете отвечать на сообщения
    Вы не можете редактировать свои сообщения
    Вы не можете удалять свои сообщения
    Вы не можете голосовать в опросах
    Вы не можете прикреплять файлы к сообщениям
    Вы можете скачивать файлы