Ссылка на приватное зеркало нашего сайта всего за 1$. Внимание количество ограничено!!!

2 сезон

iTunes

1 сезон

1

iTunes

iTunes

iTunes

1 сезон

RePack

30

ИГРА 18+

pack

ВАЖНО

!!Акция!!

Alien_RageХит недели

RePack

MK11
pack

Забери бонус

RePack

jed

!!Акция!!

Alien_Rage

RePack

fifa19

RePack

Assassins Creed: Odyssey

RePack

NEED FOR SPEED™ PAYBACK

4 сезон

9 сезон

Бесстыжие 9 сезон

Все сериалы

все сериалы на PB.wtf

RePack

FAR CRY 5
  

Параллельные миры / Upside Down (Хуан Диего Соланас) [2012 г., фэнтези, мелодрама, BDRip 1080p, DUB, лицензия] pb.wtf

Параллельные миры через торрент pb.wtf

Размер: 15.38 GB | Добавлен: 8 лет назад | Торрент скачан:397 раз
Скачать  

30-09-2012 13:32 Параллельные миры Скачать торрент  

Параллельные миры / Upside Down

Год выпуска: 2012
Страна: Канада
Жанр: фэнтези, мелодрама
Продолжительность: 113 мин. / 01:53
Перевод: Дубляж, Лицензия

Режиссер: Хуан Диего Соланас
Продюссер: Харрис Демель, Алексис Вонарб, Клод Леже
Сценарий: Сантьяго Амигорена, Харрис Демель, Хуан Диего Соланас

Мировой рейтинг IMDB 5.80 (466)


В ролях: Кирстен Данст, Джим Стёрджесс, Стелла Маив, Нил Напье, Джэйн Хейтмейер, Холли О’Брайэн, Ларри Дэй, Агнешка Вроновска, Джон МакЛарен, Дон Джордан, Василиса Воронина, Всеволод Кузнецов, Александр Гаврилин, Денис Беспалый, Михаил Тихонов

Описание: Очень давно две планеты притянулись друг к другу, и на обеих планетах живут люди, для каждой из планет есть своё притяжение. На верхней планете царит богатство и благоденствие. На ней создана корпорация, выкачивающая недры второй планеты и взамен предлагающая электроэнергию по неподъёмной для бедных жителей нижней планеты цене. Перемещение людей между планетами жестко контролируется.В центре событий находятся двое людей: она — девушка из богатой семьи из верхнего мира, он — простой человек из нижнего мира, и они любят друг друга. А ещё есть секрет пчелиной пыльцы, которая добывается одновременно на обеих планетах и имеет невероятные свойства.

Качество: BDRip 1080p
Формат: MKV
Видео кодек: Другой MPEG4
Аудио кодек: AC3
Видео: AVC at 19,4 Мбит/сек, 1920 x 1080 (16:9 ) at 23.976 fps
Аудио#1: AC-3 at 640 Кбит/сек, 6 каналов, 48,0 КГц
Релиз от:






Общее
Уникальный идентификатор : 179883360306837796038722952832769104549 (0x87544667223312898014FE8529E89AA5)
Полное имя : C:\Users\Администратор\Downloads\Параллельные Миры 2012 BDRip 1080p.mkv
Формат : Matroska
Версия формата : Version 2
Размер файла : 15,4 Гбайт
Продолжительность : 1 ч. 47 м.
Режим общего битрейта : Переменный
Общий поток : 20,4 Мбит/сек
Дата кодирования : UTC 2012-09-27 23:47:17
Программа кодирования : mkvmerge v4.9.1 ('Ich will') сборка от Jul 11 2011 23:53:15
Библиотека кодирования : libebml v1.2.1 + libmatroska v1.1.1

Видео
Идентификатор : 1
Формат : AVC
Формат/Информация : Advanced Video Codec
Профиль формата : High@L4.1
Параметр CABAC формата : Да
Параметр ReFrames формата : 4 кадра
Параметр GOP формата : M=1, N=18
Режим смешивания : Container profile=Unknown@0.0
Идентификатор кодека : V_MPEG4/ISO/AVC
Продолжительность : 1 ч. 47 м.
Вид битрейта : Переменный
Битрейт : 19,4 Мбит/сек
Максимальный битрейт : 30,0 Мбит/сек
Ширина : 1920 пикселей
Высота : 1080 пикселей
Соотношение сторон : 16:9
Режим частоты кадров : Постоянный
Частота кадров : 23,976 кадра/сек
Цветовое пространство : YUV
Субдискретизация насыщенности : 4:2:0
Битовая глубина : 8 бит
Тип развёртки : Прогрессивная
Бит/(Пиксели*Кадры) : 0.390
Размер потока : 14,6 Гбайт (95%)
Default : Нет
Forced : Нет

Аудио
Идентификатор : 2
Формат : AC-3
Формат/Информация : Audio Coding 3
Расширение режима : CM (complete main)
Параметр Endianness формата : Big
Идентификатор кодека : A_AC3
Продолжительность : 1 ч. 47 м.
Вид битрейта : Постоянный
Битрейт : 640 Кбит/сек
Каналы : 6 каналов
Расположение каналов : Front: L C R, Side: L R, LFE
Частота : 48,0 КГц
Битовая глубина : 16 бит
Метод сжатия : С потерями
Размер потока : 494 Мбайт (3%)
Default : Да
Forced : Нет

Меню
00:00:00.000 : en:00:00:00.000
00:07:45.756 : en:00:07:45.756
00:18:40.619 : en:00:18:40.619
00:29:54.375 : en:00:29:54.375
00:39:50.721 : en:00:39:50.721
00:50:09.089 : en:00:50:09.089
00:59:08.753 : en:00:59:08.753
01:07:43.309 : en:01:07:43.309
01:17:00.157 : en:01:17:00.157
01:27:02.050 : en:01:27:02.050
01:38:44.752 : en:01:38:44.752

pb.wtf



Скачать Параллельные миры через торрент http://pic.kartinco.top/images/1/xjslmcldpk.jpg Скачать фильм Параллельные миры через торрент бесплантно в хорошем качестве Описание: Очень давно две планеты притянулись друг к другу, и на обеих планетах живут люди, для каждой из планет есть своё притяжение. На ... 10 10 3
Info! Золотая раздача, скачанное не засчитывается.
Торрент: Зарегистрирован [2012-09-30 13:32] · скачан: 397 раз
Статус: √ проверено
Размер: 15.38 GB
Как cкачать? Как скачать Параллельные миры через торрент | qTorrent

% Раздел Тема Автор DL S | L
3D Фильмы [ 6.42 GB ] Параллельные миры в 3D / Upside Down in 3D [2012 BDRip 1080p ] Анаглиф slaventi-69 Скачать
1 | 1
3D Фильмы [ 7.99 GB ] Параллельные миры в 3D / Upside Down in 3D [2011 BDRip 1080p + Оригинал] Half OverUnder / Вертикальная анаморфная стереопара slaventi-69 Скачать
1 | 0
Фильмы [HD 720p, 1080p] (Хороший звук DUB, MVO) [ 6.91 GB ] Параллельные миры / Upside Down [2012 BDRip 720p DUB лицензия] AlexKa Скачать
1 | 0
Фильмы 2012 [ 1.37 GB ] Параллельные миры / Upside Down [2012 DVDRip лицензия] inktorrent Скачать
1 | 0
Фильмы 2012 [ 704 MB ] Параллельные миры / Upside Down [2012 DVDRip лицензия] inktorrent Скачать
1 | 0
Фильмы 2012 [ 2.18 GB ] Параллельные миры / Upside Down [2012 BDRip AVC MVO лицензия] Anonymous Скачать
1 | 0
Фильмы 2012 [ 693 MB ] Параллельные миры / Upside Down [2012 HDRip DUB лицензия] кэп Скачать
1 | 0


Последний раз редактировалось: TeeMoon (2012-09-30 21:22), всего редактировалось 1 раз

28-11-2019 20:33  

Отключить всю рекламу на сайте

30-09-2012 18:25 Параллельные миры Скачать торрент  

TeeMoon
Ну что же вы такие постеры делаете? Правила иногда надо читать. Максимальный размер 700х700. Есть МИ, для чего она? Соотношение сторон исправь.pb.wtf



02-10-2012 10:02 Параллельные миры Скачать торрент  

Ну как фильмец?Смотрел кто? ..качать иль не какчать?pb.wtf



02-10-2012 10:07 Параллельные миры Скачать торрент  

"секрет пчелиной пыльцы" уже смешно и стрёмно ))pb.wtf



06-10-2012 15:08 Параллельные миры Скачать торрент  

Смотрел из-за картинок, не пожалел) А так по фильму ничего интересного)pb.wtf



11-10-2012 19:18 Параллельные миры Скачать торрент  

Опробую свой новый телик ))

И скорости будьте добры, увеличьте ))pb.wtf



19-10-2012 04:48 Параллельные миры Скачать торрент  

Ничего такого особенного, но и негатива нет...........Хотя честно, вообще никаких эмоций и отпечатков в душе не оставил. Так............... просто красивая сказка но скучноватая.pb.wtf



    Дорогой пользователь! Огромная просьба, поблагодарите релизера, оцените раздачу и оставьте свои комментарий, если Вы скачали Параллельные миры через торрент бесплатно! Внесите свою лепту в развитие PiratBit!
    Комментировать посты могут только пользователи прошедшие не сложную регистрацию
    Показать сообщения:    

    Параллельные миры через торрент
    Скачать бесплатно Параллельные миры
    Параллельные миры скачать торрент
    Параллельные миры смотреть онлайн
    Cкачать фильм Параллельные миры бесплатно
    Параллельные миры скачать торрент в хорошем качестве
    Параллельные миры смотреть онлайн бесплатно в хорошем качестве


    Вы не можете начинать темы
    Вы не можете отвечать на сообщения
    Вы не можете редактировать свои сообщения
    Вы не можете удалять свои сообщения
    Вы не можете голосовать в опросах
    Вы не можете прикреплять файлы к сообщениям
    Вы можете скачивать файлы