новый адрес
Ссылка на приватное зеркало всего за 1$. Внимание количество ограничено!!!

iTunes

1+1

iTunes

мы

iTunes

1

iTunes

Чернобыль

iTunes

Ральф против интернета

Лицензия

ПШазам

Лицензия

Оно 2

Лицензия

30
pack

Вам бонус

ВАЖНО

!!Акция!!

Alien_RageХит недели

RePack

Resident Evil 21

ИГРА 18+

pack

RePack

jed

!!Акция!!

Alien_Rage

RePack

fifa19

RePack

Assassins Creed: Odyssey

RePack

NEED FOR SPEED™ PAYBACK

3 сезон

9 сезон

Бесстыжие 9 сезон

Все сериалы

все сериалы на PB.wtf

RePack

FAR CRY 5
Ребята, катастрофически не хватает 1900р. для оплаты серверов за Октябрь (всвязи с блокировками трафик упал в 3 раза), 1-2р., выручайте.
  

На помощь, братцы! (Иван Василев) [1988 г., Комедия, DVDRip, Оригинал] pb.wtf

На помощь, братцы! через торрент pb.wtf

Размер: 1.37 GB | Добавлен: 7 лет 1 мес. назад | Торрент скачан:171 раз
Скачать  

30-09-2012 14:07 На помощь, братцы! Скачать торрент  

На помощь, братцы!

Год выпуска: 1988
Страна: СССР
Жанр: Комедия
Продолжительность: 01:05:43
Перевод: Оригинал

Режиссер: Иван Василев
Сценарий: Сергей Бодров, Иван Василев

Мировой рейтинг IMDB


В ролях: Георгий Милляр, Николай Олялин, Евгений Редько, Ольга Жулина, Ольга Машная, Болот Бейшеналиев, Людмила Аринина, Валентина Клягина, Тамара Совчи, Наталья Суровегина

Описание: В некотором царстве бояре решили женить старого царя. Выбрал он себе невесту из заморских краев и послал за ней трех дураков — в надежде на то, что не смогут они выполнить его наказа...

Качество: DVDRip
Формат: AVI
Видео кодек: XviD
Аудио кодек: AC3
Видео: 704x304 (2.32:1), 25 fps, XviD build 50 ~2582 kbps avg, 0.48 bit/pixel
Аудио#1: Русский: 48 kHz, AC3 Dolby Digital, 3/2 (L,C,R,l,r) + LFE ch, ~384 kbps
Полное имя : F:\Закачки\Na.Pomosh.Brattsy.1988.DVDRip.avi
Формат : AVI
Формат/Информация : Audio Video Interleave
Размер файла : 1,37 Гбайт
Продолжительность : 1 ч. 5 м.
Общий поток : 2977 Кбит/сек
Программа кодирования : VirtualDubMod 1.5.10.3 | www.virtualdub-fr.org || (build 2550/release)
Библиотека кодирования : VirtualDubMod build 2550/release

Видео
Идентификатор : 0
Формат : MPEG-4 Visual
Профиль формата : Advanced Simple@L5
Параметр BVOP формата : 1
Параметр QPel формата : Нет
Параметр GMC формата : Без точки перехода
Параметр матрицы формата : Default (MPEG)
Идентификатор кодека : XVID
Идентификатор кодека/Подсказка : XviD
Продолжительность : 1 ч. 5 м.
Битрейт : 2583 Кбит/сек
Ширина : 704 пикселей
Высота : 304 пикселей
Соотношение сторон : 2,35:1
Частота кадров : 25,000 кадров/сек
Цветовое пространство : YUV
Субдискретизация насыщенности : 4:2:0
Битовая глубина : 8 бит
Тип развёртки : Прогрессивная
Метод сжатия : С потерями
Бит/(Пиксели*Кадры) : 0.483
Размер потока : 1,19 Гбайт (87%)
Библиотека кодирования : XviD 1.2.1 (UTC 2008-12-04)

Аудио
Идентификатор : 1
Формат : AC-3
Формат/Информация : Audio Coding 3
Расширение режима : CM (complete main)
Идентификатор кодека : 2000
Продолжительность : 1 ч. 5 м.
Вид битрейта : Постоянный
Битрейт : 384 Кбит/сек
Каналы : 6 каналов
Расположение каналов : Front: L C R, Side: L R, LFE
Частота : 48,0 КГц
Битовая глубина : 16 бит
Метод сжатия : С потерями
Размер потока : 181 Мбайт (13%)
Выравнивание : Разделение по промежуткам
Продолжительность промежутка : 40 мс. (1,00 видеокадр)
Время предзагрузки промежутка : 500 ms

pb.wtf



Скачать На помощь, братцы! через торрент http://pic.kartinco.top/images/1/ye2qbrxjij.jpg Скачать фильм На помощь, братцы! через торрент бесплантно в хорошем качестве Описание: В некотором царстве бояре решили женить старого царя. Выбрал он себе невесту из заморских краев и послал за ней трех дураков — в ... 9.3 10 3
Info! Золотая раздача, скачанное не засчитывается.
Торрент: Зарегистрирован [2012-09-30 14:07] · скачан: 171 раз
Статус: √ проверено
Размер: 1.37 GB
Как cкачать? Как скачать На помощь, братцы! через торрент | qTorrent

29-11-2012 13:47 На помощь, братцы! Скачать торрент  

Раздайте! Раздайте!pb.wtf



    Дорогой пользователь! Огромная просьба, поблагодарите релизера, оцените раздачу и оставьте свои комментарий, если Вы скачали На помощь, братцы! через торрент бесплатно! Внесите свою лепту в развитие PiratBit!
    Комментировать посты могут только пользователи прошедшие не сложную регистрацию
    Показать сообщения:    

    На помощь, братцы! через торрент
    Скачать бесплатно На помощь, братцы!
    На помощь, братцы! скачать торрент
    На помощь, братцы! смотреть онлайн
    Cкачать фильм На помощь, братцы! бесплатно
    На помощь, братцы! скачать торрент в хорошем качестве
    На помощь, братцы! смотреть онлайн бесплатно в хорошем качестве


    Вы не можете начинать темы
    Вы не можете отвечать на сообщения
    Вы не можете редактировать свои сообщения
    Вы не можете удалять свои сообщения
    Вы не можете голосовать в опросах
    Вы не можете прикреплять файлы к сообщениям
    Вы можете скачивать файлы