Anonymous, доброй ночи, присоединяйтесь к нам в Telegram!, здесь всегда актуальный адрес сайта, оперативная поддержка и многое другое!

>

5.6

iTunes

7.4

MVO

5.7

MVO

1

7.7

1 сезон

6.8

iTunes

7.3

1 сезон

13

6.7

1 сезон

8.3

RePack

30

ULTIMATE

pack

9.9

Лицензия

ВАЖНО

ИГРА 18+

pack

7.3

RePack

MK11

7.7

RePack

jed

7.8

RePack

fifa19

8.5

RePack

RDR2

RePack

NEED FOR SPEED™ PAYBACK

4 сезон

9 сезон

Бесстыжие 9 сезон

Все сериалы

все сериалы на PB.wtf

RePack

FAR CRY 5

Anonymous, доброй ночи, мы катастрофически не успеваем собрать деньги на оплату серверов, помогите нам пожалуйста 5,10,15р., для нас важна любая помощь . В качестве благодарности мы отключим Вам всю рекламу на сайте (укажите свой ник в строку Ваше имя)!

×
  
Magnet ссылка

Серфинг на Таити / The Ultimate Wave Tahiti (Стивен Лоу / Stephen Low) [2010 г., Документальный, BDRip 1080p, VO]Half OverUnder / Вертикальная анаморфная стереопара pb.wtf

Серфинг на Таити через торрент pb.wtf

Размер: 7.37 GB | Добавлен: 9 лет назад | Торрент скачан:106 раз
Смотреть онлайн Серфинг на Таити | Скачать    Ребята, помогите собрать деньги на оплату серверов!!!

01-10-2012 00:53 Серфинг на Таити Скачать торрент  

Серфинг на Таити / The Ultimate Wave Tahiti

Год выпуска: 2010
Страна: США
Жанр: Документальный
Продолжительность: 00:45:52
Перевод: Профессиональный одноголосый

Режиссер: Стивен Лоу / Stephen Low
Продюссер: Пьетро Л. Серапилья, Джефф Катлер, Терри Харди
Сценарий: Александр Лоу

Бюджет: $3 000 000
Премьера в мире: 12 февраля 2010 (17 сентября 2010)

В ролях: Kelly Slater, Raimana Van Bastolear, Kalani Miller

Описание: Действие разворачивается на острове Таити, в местечке Teahupoo,знаменитом своими убийственно быстрыми и тяжелыми волнами. Туда приезжает десятикратный Чемпион Мира и лучший серфер всех времен — Келли Слейтер.
В ожидании идеальных погодных условий, Келли не теряет время и под руководством таитского серф-гуру Раймана Ван Басталейра исследует остров во всех его проявлениях. Общение Келли и Райманы показывает, как страсть к океану объединяет людей из разных миров, что увлекает их в серфинге и заставляет идти на риск ради самых лучших волн. Создатели фильма не только раскрывают секреты философии серфинга, но и рассказывают о его природе: например, как образуются волны и формируются острова.

Качество: BDRip 1080p
Формат: MKV
Формат 3D: Half OverUnder / Вертикальная анаморфная стереопара
Порядок ракурсов: левый ракурс первый
Видео кодек: x264
Аудио кодек: AC3
Видео: AVC / 23,976 fps / 1920х1080p / 21.2 Mbps
Аудио#1: Русский / AC3 / 48 KHz / 5.1 ch / 640 Kbps
Аудио#2: Английский / AC3 / 48 KHz / 5.1 ch / 640 Kbps


General
Unique ID : 216058328499339271440417943832625915375 (0xA28B52099BC2BC359036CE3C59FBA5EF)
Complete name : J:\Фильмы\3Д\The Ultimate Wave Tahiti.mkv
Format : Matroska
Format version : Version 2
File size : 7.37 GiB
Duration : 45mn 53s
Overall bit rate : 23.0 Mbps
Encoded date : UTC 2012-10-01 00:08:16
Writing application : mkvmerge v3.4.0 ('Rapunzel') сборка от May 15 2010 09:38:20
Writing library : libebml v0.8.0 + libmatroska v0.9.0

Video
ID : 1
Format : AVC
Format/Info : Advanced Video Codec
Format profile : High@L4.1
Format settings, CABAC : Yes
Format settings, ReFrames : 4 frames
Codec ID : V_MPEG4/ISO/AVC
Duration : 45mn 53s
Bit rate : 21.2 Mbps
Width : 1 920 pixels
Height : 1 080 pixels
Display aspect ratio : 16:9
Frame rate mode : Constant
Frame rate : 23.976 fps
Color space : YUV
Chroma subsampling : 4:2:0
Bit depth : 8 bits
Scan type : Progressive
Bits/(Pixel*Frame) : 0.427
Stream size : 6.81 GiB (92%)
Title : Rip by SeRoGa00
Writing library : x264 core 128 r2216kMod 198a7ea
Encoding settings : cabac=1 / ref=4 / deblock=1:-1:-1 / analyse=0x3:0x133 / me=umh / subme=9 / psy=1 / fade_compensate=0.00 / psy_rd=1.00:0.15 / mixed_ref=1 / me_range=16 / chroma_me=1 / trellis=2 / 8x8dct=1 / cqm=0 / deadzone=21,11 / fast_pskip=1 / chroma_qp_offset=-3 / threads=9 / lookahead_threads=1 / sliced_threads=0 / nr=0 / decimate=1 / interlaced=0 / bluray_compat=0 / constrained_intra=0 / bframes=6 / b_pyramid=2 / b_adapt=2 / b_bias=0 / direct=3 / weightb=1 / open_gop=0 / weightp=2 / keyint=250 / keyint_min=23 / scenecut=40 / intra_refresh=0 / rc_lookahead=60 / rc=crf / mbtree=1 / crf=18.0000 / qcomp=0.70 / qpmin=10 / qpmax=69 / qpstep=4 / vbv_maxrate=40000 / vbv_bufsize=40000 / crf_max=0.0 / nal_hrd=none / ip_ratio=1.40 / aq=1:1.00
Language : English
Default : Yes
Forced : No

Audio #1
ID : 2
Format : AC-3
Format/Info : Audio Coding 3
Mode extension : CM (complete main)
Format settings, Endianness : Big
Codec ID : A_AC3
Duration : 45mn 53s
Bit rate mode : Constant
Bit rate : 640 Kbps
Channel(s) : 6 channels
Channel positions : Front: L C R, Side: L R, LFE
Sampling rate : 48.0 KHz
Bit depth : 16 bits
Compression mode : Lossy
Stream size : 210 MiB (3%)
Language : Russian
Default : Yes
Forced : No

Audio #2
ID : 3
Format : AC-3
Format/Info : Audio Coding 3
Mode extension : CM (complete main)
Format settings, Endianness : Big
Codec ID : A_AC3
Duration : 45mn 53s
Bit rate mode : Constant
Bit rate : 640 Kbps
Channel(s) : 6 channels
Channel positions : Front: L C R, Side: L R, LFE
Sampling rate : 48.0 KHz
Bit depth : 16 bits
Compression mode : Lossy
Stream size : 210 MiB (3%)
Language : English
Default : No
Forced : No

pb.wtf



Скачать Серфинг на Таити через торрент http://i43.fastpic.ru/big/2012/1001/a2/2f5efd257671d220aaefd39c6938afa2.jpg Скачать, смотреть онлайн Серфинг на Таити бесплантно в хорошем качестве Описание: Действие разворачивается на острове Таити, в местечке Teahupoo,знаменитом своими убийственно быстрыми и тяжелыми волнами. Туда ... 10 10 5
Info! Золотая раздача, скачанное не засчитывается.
Торрент: Зарегистрирован [2012-10-01 00:53] · скачан: 106 раз
Статус: √ проверено
Размер: 7.37 GB
Как cкачать? Как скачать Серфинг на Таити через торрент | UTorrent

28-11-2019 20:33  

Отключить всю рекламу на сайте

26-02-2014 05:20 Серфинг на Таити Скачать торрент  

дайте пож скоростиpb.wtf



    Дорогой пользователь! Огромная просьба, поблагодарите релизера, оцените раздачу и оставьте свои комментарий, если Вы скачали Серфинг на Таити через торрент бесплатно!
    Комментировать посты могут только пользователи прошедшие не сложную регистрацию
    Показать сообщения:    

    Серфинг на Таити через торрент
    Скачать бесплатно Серфинг на Таити
    Серфинг на Таити скачать торрент
    Серфинг на Таити смотреть онлайн
    Cкачать фильм Серфинг на Таити бесплатно
    Серфинг на Таити скачать торрент в хорошем качестве
    Серфинг на Таити смотреть онлайн бесплатно в хорошем качестве


    Вы не можете начинать темы
    Вы не можете отвечать на сообщения
    Вы не можете редактировать свои сообщения
    Вы не можете удалять свои сообщения
    Вы не можете голосовать в опросах
    Вы не можете прикреплять файлы к сообщениям
    Вы можете скачивать файлы