Ссылка на приватное зеркало нашего сайта всего за 1$. Внимание количество ограничено!!!

2 сезон

iTunes

1 сезон

1

iTunes

iTunes

iTunes

1 сезон

RePack

30

ИГРА 18+

pack

ВАЖНО

!!Акция!!

Alien_RageХит недели

RePack

MK11
pack

Забери бонус

RePack

jed

!!Акция!!

Alien_Rage

RePack

fifa19

RePack

Assassins Creed: Odyssey

RePack

NEED FOR SPEED™ PAYBACK

4 сезон

9 сезон

Бесстыжие 9 сезон

Все сериалы

все сериалы на PB.wtf

RePack

FAR CRY 5
  

Хулиган с белым воротничком / White Collar Hooligan (Paul Tanter) [2012 г., криминал, BDRip 720p, VO] pb.wtf

Хулиган с белым воротничком через торрент pb.wtf

Размер: 2.86 GB | Добавлен: 8 лет назад | Торрент скачан:132 раза
Скачать  

02-10-2012 09:00 Хулиган с белым воротничком Скачать торрент  

Хулиган с белым воротничком / White Collar Hooligan

Год выпуска: 2012
Страна: Великобритания
Жанр: криминал
Продолжительность: 01:21:06
Перевод: Любительский одноголосый [viRys]

Режиссер: Paul Tanter
Продюссер: Blade Angel, Patrica Rybarczyk, Jonathan Sothcott
Сценарий: Paul Tanter

Премьера в мире: 7 мая 2012

Мировой рейтинг IMDB 4.50 (502)


В ролях: Ник Неверн, Саймон Филлипс, Рита Рамнани, Питер Баррет, Ребекка Фердинандо, Риччи Харнетт, Роланд Манукян, Билли Мюррэй, Дэвид Треймейн, Amed Hashimi

Описание: Футбольный хулиган Майк Джейкобс отчаивается найти работу, когда неожиданно встречает своего старого друга Эдди Хила, который предлагает ему нестандартный заработок...

Доп. информация: ВНИМАНИЕ! В фильме присутствует ненормативная лексика.

Качество: BDRip 720p
Формат: MKV
Видео кодек: H.26x
Аудио кодек: AC3
Видео: 1280x544 (2,35:1), 23,976 fps, 4280 Kbps (0.256 bit/pixel)
Аудио#1: Russian: AC3, 384 kb/s, (6 ch), 48,0 КГц
Аудио#2: English: AC3, 384 kb/s, (6 ch), 48,0 КГц
скриншот   скриншот   скриншот   скриншот   скриншот   скриншот  

Общее
Уникальный идентификатор : 192686799193411092789930752359949798545 (0x90F620AD5FA806D1BDF7BB7C185E0C91)
Полное имя : D:\DVD\White.Collar.Hooligan(2012)720p.BluRay x264.mkv
Формат : Matroska
Версия формата : Version 2
Размер файла : 2,86 Гбайт
Продолжительность : 1 ч. 21 м.
Общий поток : 5049 Кбит/сек
Название фильма : White.Collar.Hooligan(2012)720p.BluRay x264
Дата кодирования : UTC 2012-10-02 07:43:57
Программа кодирования : mkvmerge v4.0.0 ('The Stars were mine') сборка от Jun 6 2010 16:18:42
Библиотека кодирования : libebml v1.0.0 + libmatroska v1.0.0

Видео
Идентификатор : 1
Формат : AVC
Формат/Информация : Advanced Video Codec
Профиль формата : High@L4.1
Параметр CABAC формата : Да
Параметр ReFrames формата : 5 кадров
Идентификатор кодека : V_MPEG4/ISO/AVC
Продолжительность : 1 ч. 21 м.
Битрейт : 4280 Кбит/сек
Ширина : 1280 пикселей
Высота : 544 пикселя
Соотношение сторон : 2,35:1
Режим частоты кадров : Постоянный
Частота кадров : 23,976 кадра/сек
Цветовое пространство : YUV
Субдискретизация насыщенности : 4:2:0
Битовая глубина : 8 бит
Тип развёртки : Прогрессивная
Бит/(Пиксели*Кадры) : 0.256
Размер потока : 2,37 Гбайт (83%)
Заголовок : White.Collar.Hooligan(2012)720p.BluRay x264.mkv
Библиотека кодирования : x264 core 125 r2200 999b753
Настройки программы : cabac=1 / ref=5 / deblock=1:0:0 / analyse=0x3:0x113 / me=umh / subme=7 / psy=1 / psy_rd=1.00:0.00 / mixed_ref=1 / me_range=16 / chroma_me=1 / trellis=1 / 8x8dct=1 / cqm=0 / deadzone=21,11 / fast_pskip=0 / chroma_qp_offset=-2 / threads=12 / lookahead_threads=2 / sliced_threads=0 / nr=0 / decimate=1 / interlaced=0 / bluray_compat=0 / constrained_intra=0 / bframes=3 / b_pyramid=2 / b_adapt=1 / b_bias=0 / direct=1 / weightb=1 / open_gop=0 / weightp=2 / keyint=250 / keyint_min=23 / scenecut=40 / intra_refresh=0 / rc_lookahead=40 / rc=2pass / mbtree=1 / bitrate=4280 / ratetol=1.0 / qcomp=0.60 / qpmin=0 / qpmax=69 / qpstep=4 / cplxblur=20.0 / qblur=0.5 / ip_ratio=1.40 / aq=1:1.00
Язык : English
Default : Да
Forced : Нет

Аудио #1
Идентификатор : 2
Формат : AC-3
Формат/Информация : Audio Coding 3
Расширение режима : CM (complete main)
Параметр Endianness формата : Big
Идентификатор кодека : A_AC3
Продолжительность : 1 ч. 21 м.
Вид битрейта : Постоянный
Битрейт : 384 Кбит/сек
Каналы : 6 каналов
Расположение каналов : Front: L C R, Side: L R, LFE
Частота : 48,0 КГц
Битовая глубина : 16 бит
Метод сжатия : С потерями
Размер потока : 223 Мбайт (8%)
Заголовок : VO [viRys]
Язык : Russian
Default : Да
Forced : Да

Аудио #2
Идентификатор : 3
Формат : AC-3
Формат/Информация : Audio Coding 3
Расширение режима : CM (complete main)
Параметр Endianness формата : Big
Идентификатор кодека : A_AC3
Продолжительность : 1 ч. 21 м.
Вид битрейта : Постоянный
Битрейт : 384 Кбит/сек
Каналы : 6 каналов
Расположение каналов : Front: L C R, Side: L R, LFE
Частота : 48,0 КГц
Битовая глубина : 16 бит
Метод сжатия : С потерями
Размер потока : 223 Мбайт (8%)
Язык : English
Default : Нет
Forced : Нет

pb.wtf



Скачать Хулиган с белым воротничком через торрент http://i40.fastpic.ru/big/2012/1002/66/a98ad0f42ed7e8c26d2d04206839da66.png Скачать фильм Хулиган с белым воротничком через торрент бесплантно в хорошем качестве Описание: Футбольный хулиган Майк Джейкобс отчаивается найти работу, когда неожиданно встречает своего старого друга Эдди Хила, который ... 5 10 1
Info! Золотая раздача, скачанное не засчитывается.
Торрент: Зарегистрирован [2012-10-02 09:00] · скачан: 132 раз
Статус: T временная
Размер: 2.86 GB
Как cкачать? Как скачать Хулиган с белым воротничком через торрент | qTorrent

% Раздел Тема Автор DL S | L
Фильмы 2012 [ 1.46 GB ] Хулиган с белым воротничком / White Collar Hooligan [2012 HDRip VO] лисяра Скачать
1 | 0
Фильмы 2012 [ 700 MB ] Хулиган с белым воротничком \ White Collar Hooligan [2012 HDRip VO] Drakosha Скачать
1 | 0

28-11-2019 20:33  

Отключить всю рекламу на сайте

02-10-2012 09:12 Хулиган с белым воротничком Скачать торрент  

Спасибо! Но подожду другой перевод)pb.wtf



02-10-2012 09:15 Хулиган с белым воротничком Скачать торрент  

Пока другого нет поэтому выложил с этим, появиться другой - заменим.pb.wtf



    Дорогой пользователь! Огромная просьба, поблагодарите релизера, оцените раздачу и оставьте свои комментарий, если Вы скачали Хулиган с белым воротничком через торрент бесплатно! Внесите свою лепту в развитие PiratBit!
    Комментировать посты могут только пользователи прошедшие не сложную регистрацию
    Показать сообщения:    

    Хулиган с белым воротничком через торрент
    Скачать бесплатно Хулиган с белым воротничком
    Хулиган с белым воротничком скачать торрент
    Хулиган с белым воротничком смотреть онлайн
    Cкачать фильм Хулиган с белым воротничком бесплатно
    Хулиган с белым воротничком скачать торрент в хорошем качестве
    Хулиган с белым воротничком смотреть онлайн бесплатно в хорошем качестве


    Вы не можете начинать темы
    Вы не можете отвечать на сообщения
    Вы не можете редактировать свои сообщения
    Вы не можете удалять свои сообщения
    Вы не можете голосовать в опросах
    Вы не можете прикреплять файлы к сообщениям
    Вы можете скачивать файлы