Достать ножи: Стеклянная луковица

MVO

Добыча

Дубляж

Уэнсдэй

1 сезон

Тор

Дубляж

13 клиническая

1 сезон

Жестокая ночь

MVO

Одни из нас

1 сезон

Deluxe

pack

Рекомендуем

30

Пиратка

ВАЖНО

ВАЖНО

Ghostwire

Пиратка

jed

RePack

nioh2

RePack

RDR2

RePack

NEED FOR SPEED™ PAYBACK

RePack

скачать торрент

Кинопоиск HD

Острые козырьки 6 сезон

6 сезон

FAR CRY 6

RePack

скачать торрент

Лицензия

скачать торрент

MVO

1

1 сезон

скачать торрент

1 сезон

скачать торрент

Лицензия

  

Запретная зона / Chernobyl Diaries (Брэдли Паркер) [2012 г., Ужасы, HDRip, Дубляж, лицензия]

Запретная зона через торрент pb.wtf

Размер: 1.36 GB | Добавлен: 10 лет назад | Торрент скачан:879 раз
Смотреть онлайн | Скачать | Поддержите нас   

03-10-2012 18:09 Запретная зона Скачать торрент  


Запретная зона / Chernobyl Diaries
Год выпуска: 2012
Страна: США / Alcon Entertainment, FilmNation Entertainment
Жанр: Ужасы
Продолжительность: 01:28:22
Перевод: Дубляж, Лицензия

Режиссер: Брэдли Паркер

В ролях: Ингрид Болсай Бердал, Дмитрий Дьяченко, Оливия Дадли, Девин Келли, Джесси МакКартни, Натан Филлипс, Джонатан Садовский, Милош Тимотиевич, Милутин Милошевич, Иван Джорджевич

Описание: Шестеро молодых туристов-экстремалов прибыли на каникулы в Украину. Узнав о том, что в Зону отчуждения устраиваются экскурсии, они нанимают гида и отправляются за незабываемыми впечатлениями. И таковые не заставляют их долго ждать. Казалось, радиоактивный город пуст и заброшен. Там не осталось ничего живого. Но как только солнце прячется за горизонт, Припять оживает. Нечеловеческие крики сотрясают ночной воздух. Незадачливых путешественников охватывают ужас и паника. Они понимают, что не одни в этом мёртвом городе.
Доп. информация:


Качество: HDRip
Формат: AVI
Видео кодек: XviD
Аудио кодек: AC3
Видео: 720x384 (1.88:1), 23.976 fps, XviD MPEG-4 ~1813 kbps avg, 0.27 bit/pixel
Аудио#1: 48 kHz, AC3 Dolby Digital, 3/2 (L,C,R,l,r) + LFE ch, ~384 kbps


Video #0
ID : 0
Format : MPEG-4 Visual
Format profile : Advanced [email protected]
Format settings, BVOP : 2
Format settings, QPel : No
Format settings, GMC : No warppoints
Format settings, Matrix : Custom
Muxing mode : Packed bitstream
Codec ID : XVID
Codec ID/Hint : XviD
Duration : 1h 28mn
Bit rate : 1 814 Kbps
Width : 720 pixels
Height : 384 pixels
Display aspect ratio : 1.85:1
Frame rate : 23.976 fps
Color space : YUV
Chroma subsampling : 4:2:0
Bit depth : 8 bits
Scan type : Progressive
Compression mode : Lossy
Bits/(Pixel*Frame) : 0.274
Stream size : 1.12 GiB (82%)
Writing library : XviD 58
Audio #1
ID : 1
Format : AC-3
Format/Info : Audio Coding 3
Mode extension : CM (complete main)
Format settings, Endianness : Big
Codec ID : 2000
Duration : 1h 28mn
Bit rate mode : Constant
Bit rate : 384 Kbps
Channel(s) : 6 channels
Channel positions : Front: L C R, Side: L R, LFE
Sampling rate : 48.0 KHz
Bit depth : 16 bits
Compression mode : Lossy
Stream size : 243 MiB (17%)
Alignment : Split accross interleaves
Interleave, duration : 42 ms (1.00 video frame)
Interleave, preload duration : 500 ms




Скачать Запретная зона через торрент http://3.firepic.org/3/images/2012-10/03/t3ylsoasgdpb.jpg Скачать, смотреть онлайн Запретная зона бесплантно в хорошем качестве Описание: Шестеро молодых туристов-экстремалов прибыли на каникулы в Украину. Узнав о том, что в Зону отчуждения устраиваются экскурсии, ... 9.9 10 15
Info! Золотая раздача, скачанное не засчитывается.
Торрент: Зарегистрирован [2012-10-03 18:09] · скачан: 879 раз
Статус: √ проверено
Размер: 1.36 GB
Как cкачать? Как скачать Запретная зона через торрент | UTorrent

% Раздел Тема Автор DL S | L
Фильмы (Blu-ray, BD-Remux, HDDVD) [ 18.97 GB ] Запретная зона / Chernobyl Diaries | Лицензия+ Original | BD Remux Ворон Скачать
1 | 0
Фильмы [HD 720p, 1080p] (Хороший звук DUB, MVO) [ 4.33 GB ] Запретная зона / Chernobyl Diaries | DUB + Оригинал | 720p, DUB + Оригинал AlexKa Скачать
1 | 0
Фильмы 2012 [ 1.46 GB ] Запретная зона / Chernobyl Diaries | DUB |лицензия| | DVDRip-AVC Mr. Freeman Скачать
1 | 0
Фильмы (DVD фильмы) [ 3.9 GB ] Запретная зона | | Запретная зона (Брэдли Паркер inktorrent Скачать
1 | 0
Фильмы 2012 [ 697 MB ] Запретная зона / Chernobyl Diaries | DUB |лицензия| | DVDRip Mr. Freeman Скачать
1 | 0

28-11-2019 20:33  


Отключить вcю реклaмy на сайте, в т.ч. и в плеере онлайн просмотра!

03-10-2012 19:39 Запретная зона Скачать торрент  

самый ужасный фильм про Чернобыль!!!
авторы фильма наркоманы !!!!!!!!!!!!! :cansored: :shoot2:



03-10-2012 19:57 Запретная зона Скачать торрент  

Соглашусь. Муть ещё та!!!



04-10-2012 02:13 Запретная зона Скачать торрент  

Да уж.....невероятный "шедевр"



04-10-2012 03:12 Запретная зона Скачать торрент  

редкой масти



06-10-2012 19:58 Запретная зона Скачать торрент  

один раз глянуть . концовка слабая...



25-12-2012 19:50 Запретная зона Скачать торрент  

лососните тунца. нормальный фильм. на любителя. посмотрел с удовольствием. не шедевр. но чем то зацепило



30-12-2013 12:51 Запретная зона Скачать торрент  

сцена с медведем - бомба ! нормальный фильм ,, не нравится не смотрите или снимите лучше )



    Дорогой пользователь! Огромная просьба, поблагодарите релизера, оцените раздачу и оставьте свои комментарий, если Вы скачали Запретная зона через торрент бесплатно!!
    Комментировать посты могут только пользователи прошедшие не сложную регистрацию
    Показать сообщения:    


    Запретная зона через торрент
    Скачать бесплатно Запретная зона
    Запретная зона скачать торрент
    Запретная зона смотреть онлайн
    Cкачать фильм Запретная зона бесплатно
    Запретная зона скачать торрент в хорошем качестве
    Запретная зона смотреть онлайн бесплатно в хорошем качестве
    Вы не можете начинать темы
    Вы не можете отвечать на сообщения
    Вы не можете редактировать свои сообщения
    Вы не можете удалять свои сообщения
    Вы не можете голосовать в опросах
    Вы не можете прикреплять файлы к сообщениям
    Вы можете скачивать файлы
    Запретная зона / Chernobyl Diaries [2012 г., Ужасы, HDRip, Дубляж, лицензия] смотреть онлайн, скачать торрент picoco.icu