2 сезон

iTunes

MVO

1

2 сезон

iTunes

iTunes

1 сезон

RePack

30

Новинка

ВАЖНО

ИГРА 18+

pack

RePack

MK11
pack

Легкие деньги

RePack

jed

RePack

fifa19

RePack

RDR2

RePack

NEED FOR SPEED™ PAYBACK

4 сезон

9 сезон

Бесстыжие 9 сезон

Все сериалы

все сериалы на PB.wtf

RePack

FAR CRY 5

Anonymous, добрый вечер, мы не успеваем собрать деньги на оплату серверов за декабрь и январь, помогите нам пожалуйста в это трудное время. В качестве благодарности мы отключим Вам всю рекламу на сайте (укажите свой ник в строку Ваше имя)!

×
  
Magnet ссылка

Прометей 3D / Prometheus (Ридли Скотт) [2012 г., фантастика, триллер, приключения, BDRip 3D 1080p, DUB, лицензия] Горизонтальная анаморфная стереопара pb.wtf

Прометей 3D через торрент pb.wtf

Размер: 9.72 GB | Добавлен: 8 лет 3 мес. назад | Торрент скачан:1196 раз
Скачать  

04-10-2012 07:43 Прометей 3D Скачать торрент  

Прометей / Prometheus

Год выпуска: 2012
Страна: США
Жанр: фантастика, триллер, приключения
Продолжительность: 02:03:46
Перевод: Дубляж, Лицензия
Тип релиза: Лицензия

Режиссер: Ридли Скотт
Продюссер: Дэвид Гайлер, Уолтер Хилл, Ридли Скотт
Сценарий: Джон Спэйтс, Дэймон Линделоф, Дэн О’Бэннон

Мировой рейтинг IMDB 7.40 (168 866)


В ролях: Нуми Рапас, Майкл Фассбендер, Шарлиз Терон, Идрис Эльба, Гай Пирс, Логан Маршалл-Грин, Шон Харрис, Рейф Сполл, Иман Эллиотт, Бенедикт Вонг, Ольга Сирина, Илья Исаев, Татьяна Шитова, Александр Груздев, Александр Пожаров

Описание: В поисках сакрального знания группа ученых отправляется в самые темные и неизведанные чертоги вселенной. Именно там, в отдаленных мирах, находясь на пределе своих умственных и физических возможностей, им предстоит вступить в безжалостную схватку за будущее всего человечества...

Доп. информация: Горизонтальная анаморфная стереопара, для просмотра на 3D-телевизорах (рип проверен на Samsung UE-C7000)
Формат 3d: Anamorph SideBySide

Сэмпл: http://sendfile.su/683642

Качество: BDRip 1080p
Формат: MKV
Видео кодек: H.26x
Аудио кодек: AC3
Видео: AVC, 11 Мбит/сек, 1920x1080, 23.976 кадр/сек
Аудио#1: AC3, 384 Кбит/сек, 6 каналов, 48,0 КГц
Общее
Уникальный идентификатор : 249181950917714718454742900335071506603 (0xBB76B2B5D9D9BCC582499456018CB0AB)
Полное имя : D:\Prometheus.2012.3D.HSBS 1080.mkv
Формат : Matroska
Версия формата : Version 2
Размер файла : 9,72 Гбайт
Продолжительность : 2 ч. 3 м.
Общий поток : 11,2 Мбит/сек
Название фильма : cnliti-20120930
Дата кодирования : UTC 2012-10-02 09:20:17
Программа кодирования : mkvmerge v5.8.0 ('No Sleep / Pillow') built on Sep 2 2012 15:37:04
Библиотека кодирования : libebml v1.2.3 + libmatroska v1.3.0
Attachment : Yes

Видео
Идентификатор : 1
Формат : AVC
Формат/Информация : Advanced Video Codec
Профиль формата : High@L4.1
Параметр CABAC формата : Да
Параметр ReFrames формата : 4 кадра
Идентификатор кодека : V_MPEG4/ISO/AVC
Продолжительность : 2 ч. 3 м.
Битрейт : 11,0 Мбит/сек
Ширина : 1920 пикселей
Высота : 1080 пикселей
Соотношение сторон : 16:9
Режим частоты кадров : Постоянный
Частота кадров : 23,976 кадра/сек
Цветовое пространство : YUV
Субдискретизация насыщенности : 4:2:0
Битовая глубина : 8 бит
Тип развёртки : Прогрессивная
Бит/(Пиксели*Кадры) : 0.221
Размер потока : 9,19 Гбайт (95%)
Заголовок : cnliti-20120930
Библиотека кодирования : x264 core 120 r2146 bcd41db
Настройки программы : cabac=1 / ref=3 / deblock=1:0:0 / analyse=0x3:0x113 / me=hex / subme=7 / psy=1 / psy_rd=1.00:0.00 / mixed_ref=1 / me_range=16 / chroma_me=1 / trellis=1 / 8x8dct=1 / cqm=0 / deadzone=21,11 / fast_pskip=1 / chroma_qp_offset=-2 / threads=12 / sliced_threads=0 / nr=0 / decimate=1 / interlaced=0 / bluray_compat=0 / constrained_intra=0 / bframes=3 / b_pyramid=2 / b_adapt=1 / b_bias=0 / direct=1 / weightb=1 / open_gop=0 / weightp=2 / keyint=250 / keyint_min=23 / scenecut=40 / intra_refresh=0 / rc_lookahead=40 / rc=abr / mbtree=1 / bitrate=11000 / ratetol=1.0 / qcomp=0.60 / qpmin=0 / qpmax=69 / qpstep=4 / ip_ratio=1.40 / aq=1:1.00
Язык : English
Default : Нет
Forced : Нет

Аудио
Идентификатор : 2
Формат : AC-3
Формат/Информация : Audio Coding 3
Расширение режима : CM (complete main)
Параметр Endianness формата : Big
Идентификатор кодека : A_AC3
Продолжительность : 2 ч. 3 м.
Вид битрейта : Постоянный
Битрейт : 384 Кбит/сек
Каналы : 6 каналов
Расположение каналов : Front: L C R, Side: L R, LFE
Частота : 48,0 КГц
Битовая глубина : 16 бит
Метод сжатия : С потерями
Размер потока : 340 Мбайт (3%)
Default : Да
Forced : Нет

pb.wtf



Скачать Прометей 3D через торрент http://pic.kartinco.top/images/1/4ii65f3yf8.jpg Скачать фильм Прометей 3D через торрент бесплантно в хорошем качестве Описание: В поисках сакрального знания группа ученых отправляется в самые темные и неизведанные чертоги вселенной. Именно там, в отдаленных ... 9.9 10 16
Info! Золотая раздача, скачанное не засчитывается.
Торрент: Зарегистрирован [2012-10-04 07:43] · скачан: 1 196 раз
Статус: √ проверено
Размер: 9.72 GB
Как cкачать? Как скачать Прометей 3D через торрент | UTorrent



Последний раз редактировалось: Userman4ik (2012-10-04 08:34), всего редактировалось 1 раз

28-11-2019 20:33  

Отключить всю рекламу на сайте

04-10-2012 08:21 Прометей 3D Скачать торрент  

Userman4ik
Выложите Сэмпл.pb.wtf



04-10-2012 08:24 Прометей 3D Скачать торрент  

кэп писал(а):

Userman4ik
Выложите Сэмпл.

Не верите

ща сделаю

Готовоpb.wtf





Последний раз редактировалось: Userman4ik (2012-10-04 08:36), всего редактировалось 1 раз

04-10-2012 08:26 Прометей 3D Скачать торрент  

подскажите пожалуйста,а чем отличается горизонтальная анаморфная стереопара от вертикальной?pb.wtf



04-10-2012 08:37 Прометей 3D Скачать торрент  

SEREGA1313 писал(а):

подскажите пожалуйста,а чем отличается горизонтальная анаморфная стереопара от вертикальной?

...ну одна горизонтальная, а другая вертикальная pb.wtf



04-10-2012 08:41 Прометей 3D Скачать торрент  

Userman4ik писал(а):

SEREGA1313 писал(а):

подскажите пожалуйста,а чем отличается горизонтальная анаморфная стереопара от вертикальной?

...ну одна горизонтальная, а другая вертикальная

ты безнадёжен!pb.wtf



04-10-2012 08:42 Прометей 3D Скачать торрент  

SEREGA1313 писал(а):

подскажите пожалуйста,а чем отличается горизонтальная анаморфная стереопара от вертикальной?

Если у вас тв с поляризацией лучше вертикалка , а с затворными очками без разницы . В этом рипе качество чуть хуже чем в вертикалке , но это определит только спец.pb.wtf



04-10-2012 08:44 Прометей 3D Скачать торрент  

SEREGA1313 писал(а):

Userman4ik писал(а):

SEREGA1313 писал(а):

подскажите пожалуйста,а чем отличается горизонтальная анаморфная стереопара от вертикальной?

...ну одна горизонтальная, а другая вертикальная

ты безнадёжен!

...да не парься, грубо говоря отличаются визуально, теоретически для 3д теликов подойдут оба вида, но на практике все зависит от самого телика, у меня например в горизонтальной стереопаре 3д смотрится отлично,а вот вертикальной что-то намудренно с масштабированием или настройками телика (картинка получается не четкой и 3д размытое), не разбирался основательно, короче кому как нравится (цитата с форума)pb.wtf



04-10-2012 08:45 Прометей 3D Скачать торрент  

Userman4ik писал(а):

SEREGA1313 писал(а):

Userman4ik писал(а):

SEREGA1313 писал(а):

подскажите пожалуйста,а чем отличается горизонтальная анаморфная стереопара от вертикальной?

...ну одна горизонтальная, а другая вертикальная

ты безнадёжен!

...да не парься, грубо говоря отличаются визуально, теоретически для 3д теликов подойдут оба вида, но на практике все зависит от самого телика, у меня например в горизонтальной стереопаре 3д смотрится отлично,а вот вертикальной что-то намудренно с масштабированием или настройками телика (картинка получается не четкой и 3д размытое), не разбирался основательно, короче кому как нравится (цитата с форума)

другое дело, спасибо!pb.wtf



30-01-2015 18:24 Прометей 3D Скачать торрент  

Господа! Ну встаньте на раздачу
pb.wtf



07-02-2015 19:03 Прометей 3D Скачать торрент  

скорости....плиииз...pb.wtf



    Дорогой пользователь! Огромная просьба, поблагодарите релизера, оцените раздачу и оставьте свои комментарий, если Вы скачали Прометей 3D через торрент бесплатно! Внесите свою лепту в развитие PiratBit!
    Комментировать посты могут только пользователи прошедшие не сложную регистрацию
    Показать сообщения:    

    Прометей 3D через торрент
    Скачать бесплатно Прометей 3D
    Прометей 3D скачать торрент
    Прометей 3D смотреть онлайн
    Cкачать фильм Прометей 3D бесплатно
    Прометей 3D скачать торрент в хорошем качестве
    Прометей 3D смотреть онлайн бесплатно в хорошем качестве


    Вы не можете начинать темы
    Вы не можете отвечать на сообщения
    Вы не можете редактировать свои сообщения
    Вы не можете удалять свои сообщения
    Вы не можете голосовать в опросах
    Вы не можете прикреплять файлы к сообщениям
    Вы можете скачивать файлы