Доктор Стрэндж

Лицензия

Добыча

Дубляж

Уэнсдэй

1 сезон

Тор

Дубляж

В эфире

Дубляж

Там, где раки поют

MVO

Властелин колец

1 сезон

Deluxe

pack

Рекомендуем

30

Пиратка

ВАЖНО

ВАЖНО

Ghostwire

Пиратка

jed

RePack

nioh2

RePack

RDR2

RePack

NEED FOR SPEED™ PAYBACK

RePack

скачать торрент

Кинопоиск HD

Острые козырьки 6 сезон

6 сезон

FAR CRY 6

RePack

скачать торрент

Лицензия

скачать торрент

MVO

1

1 сезон

скачать торрент

1 сезон

скачать торрент

Лицензия

  

ЗЛО / V/H/S (Мэттью Беттинелли, Адам Вингард, Дэвид Брукнер) [2012 г., ужасы, триллер, HDRip, Дубляж, лицензия]

ЗЛО через торрент pb.wtf

Размер: 2.05 GB | Добавлен: 10 лет назад | Торрент скачан:1384 раза
Смотреть онлайн | Скачать   

04-10-2012 16:20 ЗЛО Скачать торрент  

ЗЛО / V/H/S«Оно пробудилось»
Год выпуска: 2012
Страна: США
Жанр: ужасы, триллер
Продолжительность: 01:56:00
Перевод: Дубляж, Лицензия
Режиссер: Мэттью Беттинелли, Адам Вингард, Дэвид Брукнер
Продюссер: Роксанна Бенжамин, Гари Бинкоу, Брэд Миска
Сценарий: Саймон Баррет, Тай Уэст, Мэттью Беттинелли
Мировой рейтинг IMDB 6.10 (5 457)

В ролях: Кэлвин Ридер, Лэйн Хьюз, Адам Вингард, Ханна Файрман, Майк Донлан, Джо Сайкес, Дрю Сойер, Джессика Сэмс, Джо Сванберг, Софи Такал, Александр Воронов, Татьяна Шарко
Описание: В поисках редкой видеозаписи трое взломщиков пробираются в таинственный особняк. Хозяин ждет их у включенного телевизора и, похоже, не слишком радуется визиту. Он мертв уже несколько дней, а его странное наследие — коллекция старых видеозаписей, покоится неподалеку.Желая отыскать нужную пленку, друзья просматривают весь архив. Каждая запись погружает их в новый кошмар, настолько реальный, будто он происходит у них на глазах. И с каждой минутой где-то совсем рядом пробуждается оно, неведомое и беспощадное ЗЛО.
Качество: HDRip
Формат: AVI
Видео кодек: XviD
Аудио кодек: AC3
Видео: 720x400 (1.80:1), 25 fps, XviD build 50 ~2102 kbps avg, 0.31 bit/pixel
Аудио#1: 48 kHz, AC3 Dolby Digital, 3/2 (L,C,R,l,r) + LFE ch ~448.00 kbps avg
Релиз от:





D:\Фильмы\ЗЛО\Zlo.2012.D.HDRip.IRONCLUB.avi
Format : AVI
Format/Info : Audio Video Interleave
Format profile : OpenDML
File size : 2.05 GiB
Duration : 1h 54mn
Overall bit rate : 2 558 Kbps
Genre : Horror
Writing application : VirtualDubMod 1.5.10.2 (build 2540/release)
Original source form/Name : Movie
Video #0
ID : 0
Format : MPEG-4 Visual
Format profile : Advanced [email protected]
Format settings, BVOP : Yes
Format settings, QPel : No
Format settings, GMC : No warppoints
Format settings, Matrix : Custom
Codec ID : XVID
Codec ID/Hint : XviD
Duration : 1h 54mn
Bit rate : 2 098 Kbps
Width : 720 pixels
Height : 400 pixels
Display aspect ratio : 16:9
Frame rate : 23.976 fps
Resolution : 8 bits
Colorimetry : 4:2:0
Scan type : Progressive
Bits/(Pixel*Frame) : 0.304
Stream size : 1.68 GiB (82%)
Writing library : XviD 1.2.1 (UTC 2008-12-04)
Audio #1
ID : 1
Format : AC-3
Format/Info : Audio Coding 3
Codec ID : 2000
Duration : 1h 54mn
Bit rate mode : Constant
Bit rate : 448 Kbps
Channel(s) : 6 channels
Channel positions : Front: L C R, Surround: L R, LFE
Sampling rate : 48.0 KHz
Stream size : 368 MiB (18%)
Alignment : Split accross interleaves
Interleave, duration : 42 ms (1.00 video frame)
Interleave, preload duration : 500 ms




Скачать ЗЛО через торрент https://pic1.kartinco.top/images/111/1rjbs8qbdf.png Скачать, смотреть онлайн ЗЛО бесплантно в хорошем качестве Описание: В поисках редкой видеозаписи трое взломщиков пробираются в таинственный особняк. Хозяин ждет их у включенного телевизора и, ... 8.8 10 12
Info! Золотая раздача, скачанное не засчитывается.
Торрент: Зарегистрирован [2012-10-04 16:20] · скачан: 1 384 раз
Статус: √ проверено
Размер: 2.05 GB
Как cкачать? Как скачать ЗЛО через торрент | UTorrent

% Раздел Тема Автор DL S | L
Фильмы (DVD фильмы) [ 7.49 GB ] ЗЛО / V/H/S | | ЗЛО / V/H/S (Мэттью Беттинелли, Адам Вингард, Дэвид Брукнер / Matt Bettinelli, Adam Wyngarden, David Bruckner voovaz Скачать
1 | 0



Последний раз редактировалось: AGKRus36 (2012-10-05 07:58), всего редактировалось 6 раз(а)

28-11-2019 20:33  


Отключить вcю реклaмy на сайте, в т.ч. и в плеере онлайн просмотра!

04-10-2012 16:33 ЗЛО Скачать торрент  

Жаль, но фильм фуфло...



04-10-2012 16:36 ЗЛО Скачать торрент  

да фильм не очень



04-10-2012 16:42 ЗЛО Скачать торрент  

Userman4ik
eremademon

На вкус и цвет, фламастер разный...



04-10-2012 17:06 ЗЛО Скачать торрент  

AGKRus36
Уберите ссылку в на сторонний ресурс (MediaInfo)/



04-10-2012 17:51 ЗЛО Скачать торрент  

lyokaa писал(а):

AGKRus36
Уберите ссылку в на сторонний ресурс (MediaInfo)/

Есть контакт, исправил



04-10-2012 20:58 ЗЛО Скачать торрент  

Фильм просто ужас тупой!



12-10-2012 02:03 ЗЛО Скачать торрент  

Посмеялись от души!!!!!



09-05-2018 18:16 ЗЛО Скачать торрент  

pesok74 писал(а):

Посмеялись от души!!!!!

да не гоните ребятишки! _ это самое нормальмое-что можно смотреть из жанра ужаса и триллеров



  флуд в чате, выдал shuller
    Дорогой пользователь! Огромная просьба, поблагодарите релизера, оцените раздачу и оставьте свои комментарий, если Вы скачали ЗЛО через торрент бесплатно!!
    Комментировать посты могут только пользователи прошедшие не сложную регистрацию
    Показать сообщения:    


    ЗЛО через торрент
    Скачать бесплатно ЗЛО
    ЗЛО скачать торрент
    ЗЛО смотреть онлайн
    Cкачать фильм ЗЛО бесплатно
    ЗЛО скачать торрент в хорошем качестве
    ЗЛО смотреть онлайн бесплатно в хорошем качестве
    Вы не можете начинать темы
    Вы не можете отвечать на сообщения
    Вы не можете редактировать свои сообщения
    Вы не можете удалять свои сообщения
    Вы не можете голосовать в опросах
    Вы не можете прикреплять файлы к сообщениям
    Вы можете скачивать файлы
    ЗЛО / V/H/S [2012 г., ужасы, триллер, HDRip, Дубляж, лицензия] смотреть онлайн, скачать торрент picoco.icu