2 сезон

iTunes

MVO

1

2 сезон

iTunes

iTunes

1 сезон

RePack

30

Ultimate

ВАЖНО

ИГРА 18+

pack

RePack

MK11
pack

Легкие деньги

RePack

jed

RePack

fifa19

RePack

RDR2

RePack

NEED FOR SPEED™ PAYBACK

4 сезон

9 сезон

Бесстыжие 9 сезон

Все сериалы

все сериалы на PB.wtf

RePack

FAR CRY 5

Anonymous, добрый вечер, мы не успеваем собрать деньги на оплату серверов за декабрь и январь, помогите нам пожалуйста в это трудное время. В качестве благодарности мы отключим Вам всю рекламу на сайте (укажите свой ник в строку Ваше имя)!

×
  
Magnet ссылка

Замбезия в 3Д / Zambezia 3D (Уэйн Тонли) [2012 г., Мультфильм, Комедия, Приключения, Семейный, BDRip 1080p, DUB, лицензия] Вертикальная стереопара pb.wtf

Замбезия в 3Д через торрент pb.wtf

Размер: 9.63 GB | Добавлен: 8 мес. назад | Торрент скачан:5 раз
Скачать  

04-10-2012 19:46 Замбезия в 3Д Скачать торрент  

Замбезия / Zambezia

Год выпуска: 2012
Страна: ЮАР(Cinema Management Group, Triggerfish Animation, Wonderful Works, 120dB Films, ...)
Жанр: Мультфильм, Комедия, Приключения, Семейный
Продолжительность: 01:22:25

Перевод: Профессиональный (дублированный)
Русские субтитры: нет
Режиссер: Уэйн Тонли / Wayne Thornley

В ролях: Эбигейл Бреслин, Кори Бертон, Джим Каммингс, Норин ДеВулф, Ли Дуру, Джефф Голдблюм, Ричард Э. Грант, Таня Гунади, Сэмюэл Л. Джексон, Джереми Суарес, Леонард Нимой...

Роли озвучивали: Вероника Саркисова, Даниил Эльдаров, Федор Добронравов, Анна Ардова, Эвелина Блёданс, Гавриил Гордеев, Сергей Чихачев, Пётр Иващенко и др.

Описание: В мультфильме рассказывается история жизни юного соколёнка по имени Кай, его приключения, характер, комичные ситуации в которые он попадает на пути к своей главной цели, на пути к заветному птичьему городку Замбезия, в котором он от всей души желает отыскать новых друзей, которые бы скрасили его одиночество и не оставили в беде. Однако для начала ему необходимо преодолеть путь, который полон опасностей и неожиданных поворотов.

Сэмпл: http://sendfile.su/1562692

Качество: BDrip, 1080p
Контейнер: MKV
Формат 3D: OverUnder / Вертикальная стереопара
Порядок ракурсов: левый ракурс первый
Видео кодек: x264
Аудио кодек: DTS
Видео: AVC / High@L5.0 / 23,976 fps / 1920х2160 / 14,2 Мбит/сек
Аудио: Русский / DTS / 48 KHz / 5.1 ch / 1510 Кбит/сек
Аудио 2: Английский / AC3 / 48 KHz / 5.1 ch / 640 Кбит/сек

ВНИМАНИЕ ! На встроенных ТВ-плеерах работать не будет!!!

ТВ Samsung в названии которого есть надпись Ultra HD , и LG Ultra HD 800 серии, LG C6P, Xiaomi Mi TV 2, GRUNDIG VLE 8474 BL воспроизводят полные стереопары встроенными плеерами
Железные плееры на которых воспроизводятся полные стереопары:Popcorn C-200, Popcorn a-400, Dune HD Smart D1 , Dune HD DUO , Dune HD Smart H1 , Dune HD Smart B1 , Dune HD Max , Dune HD TV-303D, Dune HD TV-102, Dune HD Base 3D, Philips HMP7001, Aura HD, MECOOL BB2, Zidoo x9s, Lake I Cloud, MiBox 3
Чтобы изображение было на весь экран в плеере выставляем, если рип 1920х1600 - то выставляем 2.35:1 , если 1920х2160 - то выставляем 16:9

26.05.2020. Релиз обновлён. Русская звуковая дорожка AC3 заменена на DTS, увеличен битрейт видео.
Желающие, скачайте заново торрент-файл.
Общее
Уникальный идентификатор : 196630729961964350806869899453170646931 (0x93EDB37A1CEEA4D1806FB57A6822FF93)
Полное имя : E:\видео\Zambezia.Rip by SeRoGa00.mkv
Формат : Matroska
Версия формата : Version 2
Размер файла : 9,63 Гбайт
Продолжительность : 1 ч. 22 м.
Общий поток : 16,7 Мбит/сек
Дата кодирования : UTC 2020-05-26 14:31:51
Программа кодирования : mkvmerge v3.4.0 ('Rapunzel') сборка от May 15 2010 09:38:20
Библиотека кодирования : libebml v0.8.0 + libmatroska v0.9.0

Видео
Идентификатор : 1
Формат : AVC
Формат/Информация : Advanced Video Codec
Профиль формата : High@L5.0
Параметр CABAC формата : Да
Параметр ReFrames формата : 4 кадра
Идентификатор кодека : V_MPEG4/ISO/AVC
Продолжительность : 1 ч. 22 м.
Битрейт : 14,2 Мбит/сек
Ширина : 1920 пикселей
Высота : 2160 пикселей
Соотношение сторон : 0,889
Частота кадров : 23,976 кадра/сек
Цветовое пространство : YUV
Субдискретизация насыщенности : 4:2:0
Битовая глубина : 8 бит
Тип развёртки : Прогрессивная
Бит/(Пиксели*Кадры) : 0.143
Размер потока : 8,20 Гбайт (85%)
Заголовок : Rip by SeRoGa00
Библиотека кодирования : x264 core 157 r2969 d4099dd
Настройки программы : cabac=1 / ref=4 / deblock=1:-3:-3 / analyse=0x3:0x113 / me=umh / subme=10 / psy=1 / psy_rd=1.00:0.15 / mixed_ref=1 / me_range=24 / chroma_me=1 / trellis=2 / 8x8dct=1 / cqm=0 / deadzone=21,11 / fast_pskip=1 / chroma_qp_offset=-3 / threads=18 / lookahead_threads=6 / sliced_threads=0 / nr=0 / decimate=0 / interlaced=0 / bluray_compat=0 / constrained_intra=0 / bframes=10 / b_pyramid=2 / b_adapt=2 / b_bias=0 / direct=3 / weightb=1 / open_gop=0 / weightp=2 / keyint=250 / keyint_min=23 / scenecut=40 / intra_refresh=0 / rc_lookahead=60 / rc=crf / mbtree=1 / crf=16.5 / qcomp=0.60 / qpmin=10 / qpmax=69 / qpstep=4 / vbv_maxrate=40000 / vbv_bufsize=40000 / crf_max=0.0 / nal_hrd=none / filler=0 / ip_ratio=1.40 / aq=1:1.00
Язык : English
Default : Нет
Forced : Нет

Аудио #1
Идентификатор : 2
Формат : DTS
Формат/Информация : Digital Theater Systems
Идентификатор кодека : A_DTS
Продолжительность : 1 ч. 22 м.
Вид битрейта : Постоянный
Битрейт : 1510 Кбит/сек
Каналы : 6 каналов
Расположение каналов : Front: L C R, Side: L R, LFE
Частота : 48,0 КГц
Битовая глубина : 16 бит
Метод сжатия : С потерями
Задержка видео : 4 с. 144 мс.
Размер потока : 891 Мбайт (9%)
Язык : Russian
Default : Да
Forced : Нет

Аудио #2
Идентификатор : 3
Формат : AC-3
Формат/Информация : Audio Coding 3
Расширение режима : CM (complete main)
Параметр Endianness формата : Big
Идентификатор кодека : A_AC3
Продолжительность : 1 ч. 22 м.
Вид битрейта : Постоянный
Битрейт : 640 Кбит/сек
Каналы : 6 каналов
Расположение каналов : Front: L C R, Side: L R, LFE
Частота : 48,0 КГц
Битовая глубина : 16 бит
Метод сжатия : С потерями
Задержка видео : 4 с. 144 мс.
Размер потока : 378 Мбайт (4%)
Язык : English
Default : Нет
Forced : Нет

Меню
00:00:00.000 : en:Chapter 1
00:04:47.454 : en:Chapter 2
00:11:04.372 : en:Chapter 3
00:14:17.398 : en:Chapter 4
00:18:25.563 : en:Chapter 5
00:25:07.464 : en:Chapter 6
00:30:47.637 : en:Chapter 7
00:34:21.518 : en:Chapter 8
00:40:36.059 : en:Chapter 9
00:45:44.867 : en:Chapter 10
00:50:53.050 : en:Chapter 11
00:55:06.261 : en:Chapter 12
01:00:05.811 : en:Chapter 13
01:05:55.076 : en:Chapter 14
01:09:42.637 : en:Chapter 15
01:15:03.165 : en:Chapter 16
скриншот  

скриншот  

скриншот  

скриншот  

скриншот  

скриншот  

скриншот  
pb.wtf



Скачать Замбезия в 3Д через торрент https://d.radikal.ru/d12/2005/3a/a6356b2f8887.png Скачать фильм Замбезия в 3Д через торрент бесплантно в хорошем качестве Описание: В мультфильме рассказывается история жизни юного соколёнка по имени Кай, его приключения, характер, комичные ситуации в которые ... 10 10 2
Торрент: Зарегистрирован [2020-05-26 15:22] · скачан: 5 раз
Статус: √ проверено
Размер: 9.63 GB
Как cкачать? Как скачать Замбезия в 3Д через торрент | UTorrent



Последний раз редактировалось: serega768 (2020-05-26 15:32), всего редактировалось 6 раз(а)

28-11-2019 20:33  

Отключить всю рекламу на сайте

04-10-2012 19:50 Замбезия в 3Д Скачать торрент  

А чё по 2 скрина везде ! =)pb.wtf



04-10-2012 20:04 Замбезия в 3Д Скачать торрент  

doberman 039 3д:) вертикальная стереопара вроде называется:)pb.wtf



04-10-2012 20:18 Замбезия в 3Д Скачать торрент  

типа Мадагаскара мульт?pb.wtf



04-10-2012 22:23 Замбезия в 3Д Скачать торрент  

Дима78 писал(а):

типа Мадагаскара мульт?

дАpb.wtf



26-05-2020 15:36 Замбезия в 3Д Скачать торрент  

26.05.2020. Релиз обновлён. Русская звуковая дорожка AC3 заменена на DTS, увеличен битрейт видео.
Желающие, скачайте заново торрент-файл.pb.wtf



    Дорогой пользователь! Огромная просьба, поблагодарите релизера, оцените раздачу и оставьте свои комментарий, если Вы скачали Замбезия в 3Д через торрент бесплатно! Внесите свою лепту в развитие PiratBit!
    Комментировать посты могут только пользователи прошедшие не сложную регистрацию
    Показать сообщения:    

    Замбезия в 3Д через торрент
    Скачать бесплатно Замбезия в 3Д
    Замбезия в 3Д скачать торрент
    Замбезия в 3Д смотреть онлайн
    Cкачать фильм Замбезия в 3Д бесплатно
    Замбезия в 3Д скачать торрент в хорошем качестве
    Замбезия в 3Д смотреть онлайн бесплатно в хорошем качестве


    Вы не можете начинать темы
    Вы не можете отвечать на сообщения
    Вы не можете редактировать свои сообщения
    Вы не можете удалять свои сообщения
    Вы не можете голосовать в опросах
    Вы не можете прикреплять файлы к сообщениям
    Вы можете скачивать файлы