2 сезон

iTunes

1 сезон

1

iTunes

iTunes

iTunes

1 сезон

RePack

30

ИГРА 18+

pack

ВАЖНО

!!Акция!!

Alien_RageХит недели

RePack

MK11
pack

Забери бонус

RePack

jed

!!Акция!!

Alien_Rage

RePack

fifa19

RePack

Assassins Creed: Odyssey

RePack

NEED FOR SPEED™ PAYBACK

4 сезон

9 сезон

Бесстыжие 9 сезон

Все сериалы

все сериалы на PB.wtf

RePack

FAR CRY 5
  

Автоответчик: Удаленные сообщения / Messages Deleted (Роб Кауэн) [2009 г., триллер, детектив, BDRip 720p, MVO] pb.wtf

Автоответчик: Удаленные сообщения через торрент pb.wtf

Размер: 4.78 GB | Добавлен: 8 лет назад | Торрент скачан:40 раз
Скачать  

06-10-2012 04:51 Автоответчик: Удаленные сообщения Скачать торрент  

Автоответчик: Удаленные сообщения / Messages Deleted
«Когда один звонок решает всё»

Год выпуска: 2009
Страна: Канада
Жанр: триллер, детектив
Продолжительность: 1:31:37
Перевод: Профессиональный многоголосый
Режиссер: Роб Кауэн
Продюссер: Роб Кауэн, Дэвид Дорксен, Джим О’Грэйди
Сценарий: Ларри Коэн
Мировой рейтинг IMDB 4.70 (967)

В ролях: Мэттью Лиллард, Дебора Кара Ангер, Джина Холден, Серж Уд, Чиара Занни, Майкл Эклунд, Ксанта Рэдли, Кен Крамер, Брэндон Джей МакЛарен, Вуди Джеффрис
Описание: Дрожащий голос просит сценариста, Джоуля Брэндта, поднимать трубку на сообщение его автоответчика. Думая что это шутка, Джоуль удаляет запись — звонивший найден мертвым. Так повторяется несколько раз. Теперь сценарист — главный подозреваемый в ряде убийств.Джоуль приходит к мысли, что психопатичный убийца действует по сценарию его произведения. Теперь автору необходимо переписать концовку рассказа, иначе Брэндту придется заплатить слишком высокую цену.
Качество: BDRip 720p
Формат: MKV
Видео кодек: H.264x
Аудио кодек: AC3,DTS
Видео: AVC at 5 327 Kbps : 1280 x 696 (1.839) at 23.976 fps
Аудио#1: AC-3 at 640 Kbps : 6 channels, 48.0 KHz Language: Russian
Аудио#2: DTS at 1 510 Kbps : 6 channels, 48.0 KHz Language: English
General
Уникальный идентификатор : 236026560442739728763131459345534808558 (0xB1910FE20871A8E3B5330B095A0DF1EE)
Полное имя : C:\Users\Славон\Desktop\messages_deleted_2009_720p.mkv
Формат : Matroska
Версия формата : Version 2
Размер файла : 4.78 GiB
Продолжительность : 1h 31mn
Общий поток : 7 466 Kbps
Дата кодирования : UTC 2012-10-03 11:09:29
Программа кодирования : mkvmerge v5.6.0 ('Kenya Kane') built on May 27 2012 16:44:04
Библиотека кодирования : libebml v1.2.3 + libmatroska v1.3.0

Video
Идентификатор : 1
Формат : AVC
Формат/Информация : Advanced Video Codec
Профиль формата : High@L4.1
Параметр CABAC формата : Yes
Параметр ReFrames формата : 5 frames
Идентификатор кодека : V_MPEG4/ISO/AVC
Продолжительность : 1h 31mn
Битрейт : 5 327 Kbps
Ширина : 1 280 pixels
Высота : 696 pixels
Соотношение сторон : 1.85:1
Режим частоты кадров : Constant
Частота кадров : 23.976 fps
Цветовое пространство : YUV
Субдискретизация насыщенности : 4:2:0
Битовая глубина : 8 bits
Тип развёртки : Progressive
Бит/(Пиксели*Кадры) : 0.249
Размер потока : 3.31 GiB (69%)
Библиотека кодирования : x264 core 125 r2208 d9d2288
Настройки программы : cabac=1 / ref=5 / deblock=1:0:0 / analyse=0x3:0x113 / me=umh / subme=8 / psy=1 / psy_rd=1.00:0.00 / mixed_ref=1 / me_range=16 / chroma_me=1 / trellis=1 / 8x8dct=1 / cqm=0 / deadzone=21,11 / fast_pskip=1 / chroma_qp_offset=-2 / threads=12 / lookahead_threads=2 / sliced_threads=0 / nr=0 / decimate=1 / interlaced=0 / bluray_compat=0 / constrained_intra=0 / bframes=3 / b_pyramid=2 / b_adapt=2 / b_bias=0 / direct=3 / weightb=1 / open_gop=0 / weightp=2 / keyint=240 / keyint_min=24 / scenecut=40 / intra_refresh=0 / rc_lookahead=50 / rc=2pass / mbtree=1 / bitrate=5327 / ratetol=1.0 / qcomp=0.60 / qpmin=0 / qpmax=69 / qpstep=4 / cplxblur=20.0 / qblur=0.5 / ip_ratio=1.40 / aq=1:1.00
Язык : English
Default : Yes
Forced : No

Audio #1
Идентификатор : 2
Формат : DTS
Формат/Информация : Digital Theater Systems
Идентификатор кодека : A_DTS
Продолжительность : 1h 31mn
Вид битрейта : Constant
Битрейт : 1 510 Kbps
Каналы : 6 channels
Расположение каналов : Front: L C R, Side: L R, LFE
Частота : 48.0 KHz
Битовая глубина : 24 bits
Метод сжатия : Lossy
Размер потока : 989 MiB (20%)
Заголовок : English DTS 1509kbps
Язык : English
Default : No
Forced : No

Audio #2
Идентификатор : 3
Формат : AC-3
Формат/Информация : Audio Coding 3
Расширение режима : CM (complete main)
Параметр Endianness формата : Big
Идентификатор кодека : A_AC3
Продолжительность : 1h 31mn
Вид битрейта : Constant
Битрейт : 640 Kbps
Каналы : 6 channels
Расположение каналов : Front: L C R, Side: L R, LFE
Частота : 48.0 KHz
Битовая глубина : 16 bits
Метод сжатия : Lossy
Задержка видео : 1s 800ms
Размер потока : 419 MiB (9%)
Заголовок : Многоголосый закадровый
Язык : Russian
Default : Yes
Forced : Yes

Menu
00:00:00.000 : en:00:00:00.000
00:08:23.628 : en:00:08:23.628
00:23:57.561 : en:00:23:57.561
00:41:12.345 : en:00:41:12.345
00:48:03.089 : en:00:48:03.089
01:00:41.721 : en:01:00:41.721
01:12:30.179 : en:01:12:30.179
01:25:55.567 : en:01:25:55.567
pb.wtf



Скачать Автоответчик: Удаленные сообщения через торрент http://pic.kartinco.top/images/1/9tltdkf3bi.jpg Скачать фильм Автоответчик: Удаленные сообщения через торрент бесплантно в хорошем качестве Описание: Дрожащий голос просит сценариста, Джоуля Брэндта, поднимать трубку на сообщение его автоответчика. Думая что это шутка, Джоуль ... 5 10 1
Info! Золотая раздача, скачанное не засчитывается.
Торрент: Зарегистрирован [2012-10-06 04:51] · скачан: 40 раз
Статус: √ проверено
Размер: 4.78 GB
Как cкачать? Как скачать Автоответчик: Удаленные сообщения через торрент | qTorrent

% Раздел Тема Автор DL S | L
Фильмы 2009 [ 1.37 GB ] Автоответчик: Удаленные сообщения / Messages Deleted [2009 DVDRip] SD Скачать
1 | 0

28-11-2019 20:33  

Отключить всю рекламу на сайте

    Дорогой пользователь! Огромная просьба, поблагодарите релизера, оцените раздачу и оставьте свои комментарий, если Вы скачали Автоответчик: Удаленные сообщения через торрент бесплатно! Внесите свою лепту в развитие PiratBit!
    Комментировать посты могут только пользователи прошедшие не сложную регистрацию
    Показать сообщения:    

    Автоответчик: Удаленные сообщения через торрент
    Скачать бесплатно Автоответчик: Удаленные сообщения
    Автоответчик: Удаленные сообщения скачать торрент
    Автоответчик: Удаленные сообщения смотреть онлайн
    Cкачать фильм Автоответчик: Удаленные сообщения бесплатно
    Автоответчик: Удаленные сообщения скачать торрент в хорошем качестве
    Автоответчик: Удаленные сообщения смотреть онлайн бесплатно в хорошем качестве


    Вы не можете начинать темы
    Вы не можете отвечать на сообщения
    Вы не можете редактировать свои сообщения
    Вы не можете удалять свои сообщения
    Вы не можете голосовать в опросах
    Вы не можете прикреплять файлы к сообщениям
    Вы можете скачивать файлы