Всегда рабочее зеркало без VPN и Proxy просто перед .vidak.icu напиши любое слово или цифру, Пример http://yoso.vidak.icu

MVO

2 сезон

1 сезон

1

1 сезон

iTunes

2 сезон

13

1 сезон

Распродажа

pack

Рекомендуем

Пиратка

30

ВАЖНО

RePack

MK11

RePack

jed

RePack

fifa19

RePack

RDR2

RePack

NEED FOR SPEED™ PAYBACK

Кинопоиск HD

6 сезон

 Острые козырьки 6 сезон

Все сериалы

все сериалы на PB.wtf

RePack

FAR CRY 5

Anonymous, нам критически не хватает 5601 руб. на оплату серверов и переферии за Апрель, помоги нам пожалуйста, вся надежда только на тебя. В благодарность мы отключим тебе всю рекламу на сайте!

×
  
Magnet ссылка

Оазис любви (Артем Насыбулин) [2012, мелодрама, DVD5] R5 pb.wtf

Смотреть онлайн Оазис любви | Скачать    Ребята, помогите собрать деньги на оплату серверов!!!

06-10-2012 08:20 Оазис любви Скачать торрент  


Оазис любви
«Мое сердце на востоке»
Страна: Россия
Студия: Грин-фильм
Жанр: мелодрама
Год выпуска: 2012
Дата выхода DVD: 2 октября 2011
Продолжительность: 01:35:22
Перевод: Оригинал [Лицензия]
Cубтитры: нет
Оригинальная аудиодорожка: русский
Режиссер: Артем Насыбулин
В ролях: Дарья Бондаренко, Алена Хмельницкая, Алексей Красноцветов, Олег Алмазов, Лариса Игнатенко, Жанат (Жан) Байжанбаев, Дастен Шакиров, Торгын Тасыбекова
Описание: Светлана — мать-одиночка, живущая с дочерью-студенткой Лерой. Отец ее дочери оставил семью еще до рождения девочки. Но основные жизненные трудности Светланы уже позади, и, наконец, она на седьмом небе от счастья. После долгих лет одиночества давно ухаживавший за Светланой сослуживец предложил ей выйти замуж. Но дочь Лера вовсе не в восторге от предстоящего родства с Анатолием. Ей нужен отец, но не этот, а родной. После конфликта с будущим отчимом Лера решает во что бы то ни стало разыскать своего настоящего отца.
Перерывая Интернет, Лера выясняет, что ее отец живет в Казахстане, она «одалживает» у матери деньги, отложенные на свадебное платье, и вскоре оказывается в Алма-Ате, на пороге дома состоятельного господина по имени Амир, который и понятия не имеет, кто она такая. Тем не менее, он принимает ее, как родную, и несколько дней, проведенных на Востоке, кажутся Валерии волшебной сказкой: богатый дом, в котором ей рады; несколько поколений дружной семьи, с удовольствием встречающихся под одной крышей; пылкий красавец, так не похожий на тихого воздыхателя Ванечку, оставленного Лерой в Москве… Все это обещает новую прекрасную жизнь… Но все ли так безоблачно? Что же случилось много лет назад? Удастся ли Лере, Светлане и Амиру когда-нибудь зажить одной семьей, восстановив разрушенный союз?..

Бонусы: нет

Релиз группы:
Качество: DVD5 R5
Формат: DVD-Video
Видео кодек: MPEG2
Аудио кодек: AC3
Видео: PAL 16:9 (720x576(0.534)) MPEG Video, 25,000 кадр/сек, 5536 Кбит/сек
Аудио: Russian (Dolby AC3, 2 ch) 192 Кбит/сек, 48,0 КГц



Title: Oasis.Lubvi.2012.DVD5
Size: 3.95 Gb ( 4 146 286,00 KBytes ) - DVD-5
Enabled regions: 1, 2, 3, 4, 5, 6, 7, 8

VTS_01 :
Play Length: 00:00:25+{00:00:25}+{00:00:25}
Video: PAL 4:3 (720x576) VBR
Audio:
Russian (Dolby AC3, 6 ch)
English (Dolby AC3, 6 ch)
English (Dolby AC3, 6 ch)

VTS_02 :
Play Length: 01:35:22
Video: PAL 16:9 (720x576) VBR, Auto Pan&Scan, Auto Letterboxed
Audio:
Russian, AC3, 2/0 (L,R) ch, 192 kbps, Delay 0 mSec

* Menus Information *

VIDEO_TS Menu
Video:
PAL 4:3 (720x576) VBR
English Language Unit :
Title Menu

VTS_01 Menu
Video:
PAL 4:3 (720x576) VBR
Audio:
Not specified (Dolby AC3, 2 ch)
English Language Unit :
Root Menu
Chapter (PTT) Menu

VTS_02 Menu
Video:
PAL 4:3 (720x576) VBR
English Language Unit :
Root Menu
Chapter (PTT) Menu
Общее
Полное имя : J:\Новинки 2012\Oasis.Lubvi.2012.DVD5\VIDEO_TS\VTS_02_1.VOB
Формат : MPEG-PS
Размер файла : 1024 Мбайт
Продолжительность : 24 м.
Режим общего битрейта : Переменный
Общий поток : 5844 Кбит/сек

Видео
Идентификатор : 224 (0xE0)
Формат : MPEG Video
Версия формата : Version 2
Профиль формата : Main@Main
Параметр BVOP формата : Да
Параметр матрицы формата : Выборочная
Продолжительность : 24 м.
Вид битрейта : Переменный
Битрейт : 5536 Кбит/сек
Максимальный битрейт : 8000 Кбит/сек
Ширина : 720 пикселей
Высота : 576 пикселей
Соотношение сторон : 16:9
Частота кадров : 25,000 кадров/сек
Стандарт вещания : PAL
Цветовое пространство : YUV
Субдискретизация насыщенности : 4:2:0
Битовая глубина : 8 бит
Тип развёртки : Чересстрочная
Порядок развёртки : Верхнее поле первое
Метод сжатия : С потерями
Бит/(Пиксели*Кадры) : 0.534
Размер потока : 970 Мбайт (95%)

Аудио
Идентификатор : 189 (0xBD)-128 (0x80)
Формат : AC-3
Формат/Информация : Audio Coding 3
Расширение режима : CM (complete main)
Параметр Endianness формата : Big
Режим смешивания : DVD-Video
Продолжительность : 24 м.
Вид битрейта : Постоянный
Битрейт : 192 Кбит/сек
Каналы : 2 канала
Расположение каналов : Front: L R
Частота : 48,0 КГц
Битовая глубина : 16 бит
Метод сжатия : С потерями
Размер потока : 33,6 Мбайт (3%)










pb.wtf



Скачать
Чтобы иметь возможность скачивать с Торрент Трекера, нужно Зарегистрироваться

Как скачивать  ·  Рейтинг и ограничения

28-11-2019 20:33  

Отключить всю рекламу на сайте

    Дорогой пользователь! Огромная просьба, поблагодарите релизера, оцените раздачу и оставьте свои комментарий, если Вы скачали Оазис любви через торрент бесплатно!
    Комментировать посты могут только пользователи прошедшие не сложную регистрацию
    Показать сообщения:    

    Оазис любви через торрент
    Скачать бесплатно Оазис любви
    Оазис любви скачать торрент
    Оазис любви смотреть онлайн
    Cкачать фильм Оазис любви бесплатно
    Оазис любви скачать торрент в хорошем качестве
    Оазис любви смотреть онлайн бесплатно в хорошем качестве


    Вы не можете начинать темы
    Вы не можете отвечать на сообщения
    Вы не можете редактировать свои сообщения
    Вы не можете удалять свои сообщения
    Вы не можете голосовать в опросах
    Вы не можете прикреплять файлы к сообщениям
    Вы не можете скачивать файлы