1 сезон

3 сезон

iTunes

1

iTunes

MVO

iTunes

13

1 сезон

RePack

30

Deluxe

pack

Лицензия

ВАЖНО

ИГРА 18+

pack

RePack

MK11

RePack

jed

RePack

fifa19

RePack

RDR2

RePack

NEED FOR SPEED™ PAYBACK

4 сезон

9 сезон

Бесстыжие 9 сезон

Все сериалы

все сериалы на PB.wtf

RePack

FAR CRY 5

Anonymous, доброе утро, мы катастрофически не успеваем собрать деньги на оплату серверов, помогите нам пожалуйста 5,10,15р., для нас важна любая помощь . В качестве благодарности мы отключим Вам всю рекламу на сайте (укажите свой ник в строку Ваше имя)!

×
  
Magnet ссылка

Глаза дракона / Dragon Eyes (Джон Хайамс / John Hyams) [2012, боевик, драма, криминал, DVD5] R5 pb.wtf

Глаза дракона через торрент pb.wtf

Размер: 4.13 GB | Добавлен: 8 лет 9 мес. назад | Торрент скачан:114 раз
Скачать  

06-10-2012 19:00 Глаза дракона Скачать торрент  


Глаза дракона / Dragon Eyes
Страна: США
Студия: AfterDark Films, Dark Castle Entertainment, Silver Pictures
Жанр: боевик, драма, криминал
Год выпуска: 2012
Мировая премьера: 9 апреля 2012
Дата выхода DVD: 11 октября 2012
Продолжительность: 01:27:50
Перевод: Профессиональный (многоголосый закадровый) [Лицензия]
Cубтитры: нет
Режиссер: Джон Хайамс / John Hyams
В ролях: Жан-Клод Ван Дамм, Питер Уэллер, Кунг Ле, Кристофер Ван Варенберг, Луис Да Силва мл., Кристал Мантекон, Моника Акоста, Эрик Браун Эдди Роус, Дэнни Космо Хиггинботтом
Описание: Новый Орлеан, наши дни. Как и любой другой процветающий мегаполис мира, — это город контрастов, где есть и блеск, и грязь, встречаются роскошные дворцы и нищенские трущобы, где есть место великим возможностям и невероятным шансам самореализации, а вместе с тем — рискованным случайностям и проблематичным ситуациям.
Однако, существуют куда более острые проблемы в виде деятельности организованной преступности и гангстерских группировок, которые интенсивно наращивают свою массу и влияние, повсюду распространяя оружие и наркотики. Страшнее же этого может быть только коррумпированность представителей закона и продажность органов власти.
Но даже там, где всё куплено и схвачено, найдутся смельчаки, у которых есть в планах сломать систему и выкорчевать всю гниль устоявшегося порядка вещей. И вот однажды, устав от творящегося беззакония и беспорядка, обычный человек, но бдительный гражданин, бросает вызов «элите» нечистых на руку полицейских и погрязших в коррупции служителей закона, матёрым гангстерам и всесильным заправилам криминального мира. Как оказалось, вступить в неравный бой — лишь капля в море по сравнению с тем, чему суждено случиться дальше…

Бонусы: нет

Релиз группы:
Качество: DVD5 R5
Формат: DVD-Video
Видео кодек: MPEG2
Аудио кодек: AC3
Видео: PAL 16:9 (720x576(0.620)) MPEG Video, 25,000 кадр/сек, 6430 Кбит/сек
Аудио: Russian (Dolby AC3, 2 ch) 192 Кбит/сек, 48,0 КГц



Title: Glaza.drakona.2012.DVD5
Size: 4.13 Gb ( 4 332 598,00 KBytes ) - DVD-5
Enabled regions: 1, 2, 3, 4, 5, 6, 7, 8

VTS_01 :
Play Length: 01:27:50
Video: PAL 16:9 (720x576) VBR, Auto Letterboxed
Audio:
Russian (Dolby AC3, 2 ch)

VTS_02 :
Play Length: 00:00:16+00:00:08
Video: PAL 16:9 (720x576) VBR, Auto Letterboxed
Audio:
Russian (Dolby AC3, 2 ch)

* Menus Information *

VIDEO_TS Menu
Video:
NTSC 4:3 (720x480) VBR
Auto Pan&Scan, Auto Letterboxed
Russian Language Unit :
Title Menu

VTS_01 Menu
Video:
PAL 16:9 (720x576) VBR
Auto Letterboxed
Audio:
Not specified (Dolby AC3, 2 ch)
Russian Language Unit :
Root Menu

VTS_02 Menu
Video:
NTSC 4:3 (720x480) VBR
Auto Pan&Scan, Auto Letterboxed
Language Unit :

Language Unit :
Root Menu
Subpicture Menu
Audio Menu
Chapter (PTT) Menu
Общее
Полное имя : J:\Новинки 2012\Glaza.drakona.2012.DVD5\VIDEO_TS\VTS_01_1.VOB
Формат : MPEG-PS
Размер файла : 1024 Мбайт
Продолжительность : 21 м.
Режим общего битрейта : Переменный
Общий поток : 6756 Кбит/сек

Видео
Идентификатор : 224 (0xE0)
Формат : MPEG Video
Версия формата : Version 2
Профиль формата : Main@Main
Параметр BVOP формата : Да
Параметр матрицы формата : Выборочная
Параметр GOP формата : M=3, N=15
Продолжительность : 21 м.
Вид битрейта : Переменный
Битрейт : 6430 Кбит/сек
Максимальный битрейт : 9000 Кбит/сек
Ширина : 720 пикселей
Высота : 576 пикселей
Соотношение сторон : 16:9
Частота кадров : 25,000 кадров/сек
Стандарт вещания : PAL
Цветовое пространство : YUV
Субдискретизация насыщенности : 4:2:0
Битовая глубина : 8 бит
Тип развёртки : Чересстрочная
Порядок развёртки : Верхнее поле первое
Метод сжатия : С потерями
Бит/(Пиксели*Кадры) : 0.620
Размер потока : 975 Мбайт (95%)

Аудио
Идентификатор : 189 (0xBD)-128 (0x80)
Формат : AC-3
Формат/Информация : Audio Coding 3
Расширение режима : CM (complete main)
Параметр Endianness формата : Big
Режим смешивания : DVD-Video
Продолжительность : 21 м.
Вид битрейта : Постоянный
Битрейт : 192 Кбит/сек
Каналы : 2 канала
Расположение каналов : Front: L R
Частота : 48,0 КГц
Битовая глубина : 16 бит
Метод сжатия : С потерями
Задержка видео : -80 мс.
Размер потока : 29,1 Мбайт (3%)










pb.wtf



Скачать Глаза дракона через торрент http://i39.fastpic.ru/big/2012/1006/28/60bab16fba1f4af74f1e50ebcb1eec28.jpg Скачать фильм Глаза дракона через торрент бесплантно в хорошем качестве Описание: Новый Орлеан, наши дни. Как и любой другой процветающий мегаполис мира, — это город контрастов, где есть и блеск, и грязь, ... 5 10 1
Info! Золотая раздача, скачанное не засчитывается.
Торрент: Зарегистрирован [2012-10-06 19:00] · скачан: 114 раз
Статус: √ проверено
Размер: 4.13 GB
Как cкачать? Как скачать Глаза дракона через торрент | UTorrent

28-11-2019 20:33  

Отключить всю рекламу на сайте

06-10-2012 19:13 Глаза дракона Скачать торрент  

фигня низкобюджетная!pb.wtf



    Дорогой пользователь! Огромная просьба, поблагодарите релизера, оцените раздачу и оставьте свои комментарий, если Вы скачали Глаза дракона через торрент бесплатно! Внесите свою лепту в развитие PiratBit!
    Комментировать посты могут только пользователи прошедшие не сложную регистрацию
    Показать сообщения:    

    Глаза дракона через торрент
    Скачать бесплатно Глаза дракона
    Глаза дракона скачать торрент
    Глаза дракона смотреть онлайн
    Cкачать фильм Глаза дракона бесплатно
    Глаза дракона скачать торрент в хорошем качестве
    Глаза дракона смотреть онлайн бесплатно в хорошем качестве


    Вы не можете начинать темы
    Вы не можете отвечать на сообщения
    Вы не можете редактировать свои сообщения
    Вы не можете удалять свои сообщения
    Вы не можете голосовать в опросах
    Вы не можете прикреплять файлы к сообщениям
    Вы можете скачивать файлы