Ссылка на приватное зеркало нашего сайта всего за 1$. Внимание количество ограничено!!!

2 сезон

iTunes

1 сезон

1

2 сезон

2 сезон

iTunes

1 сезон

RePack

30

Ultimate

ВАЖНО

ИГРА 18+

pack

RePack

MK11
pack

Забери бонус

RePack

jed

!!Акция!!

Alien_Rage

RePack

fifa19

RePack

Assassins Creed: Odyssey

RePack

NEED FOR SPEED™ PAYBACK

4 сезон

9 сезон

Бесстыжие 9 сезон

Все сериалы

все сериалы на PB.wtf

RePack

FAR CRY 5
  

30 дней ночи / 30 Days of Night (Дэвид Слэйд) [2007 г., ужасы, триллер, BD-Remux, MVO] pb.wtf

30 дней ночи через торрент pb.wtf

Размер: 32.18 GB | Добавлен: 8 лет 1 мес. назад | Торрент скачан:3 раза
Скачать  

09-10-2012 10:00 30 дней ночи Скачать торрент  

30 дней ночи / 30 Days of Night

Год выпуска: 2007
Страна: США
Жанр: ужасы, триллер
Продолжительность: 01:53:05
Перевод: Профессиональный многоголосый

Режиссер: Дэвид Слэйд
Продюссер: Сэм Рэйми, Роберт Тейперт, Тед Адамс

Бюджет: $30 000 000
Премьера в мире: 16 октября 2007

IMDB 6.60 (86 324)


В ролях: Джош Хартнетт, Мелисса Джордж, Дэнни Хьюстон, Бен Фостер, Марк Бун Джуниор, Марк Рендалл, Эмбер Сейнсбури, Ману Беннетт, Меган Фрэнич, Джоэль Тобек, Александр Гаврилин, Татьяна Шитова, Василий Дахненко, Лиза Мартиросова, Пётр Иващенко

Описание: Каждый год на 30 дней маленький город Бэрроу на Аляске погружается во тьму. Арктическая ночь - вещь вполне нормальная для этих мест. Но вот однажды, шериф городка Олсон начинает подозревать, что на этот раз тридцатидневный сумрак не пройдет так гладко. Вампиры подготавливают кровавый рейд на Бэрроу...

Качество: BD-Remux
Формат: BDAV
Видео кодек: AVC
Аудио кодек: DTS
Видео: MPEG-4 AVC, 24760 Кбит/с, 1920x1080, 23.976 кадр/с
Аудио#1: Русский(DTS-HD MA, 6 ch, 3909 Кбит/с, 48 Кгц)
Аудио#2: Русский(DTS-HD MA, 6 ch, 3914 Кбит/с, 48 Кгц)
Аудио#3: Руский(AC3, 6 ch, 448 Кбит/с,48 Кгц)
Аудио#4: Английский(TrueHD, 6 ch, 3526 Кбит/с,48 Кгц)
Аудио#5: Английский(AC3, 2 ch, 192 Кбит/с, 48 Кгц)
Субтитры: Русские,английские

Общее
Идентификатор : 1 (0x1)
Полное имя : E:30.Days.of.Night.2007.1080p.3xRus.Eng.HDCLUBBDMVSTREAM\00000.m2ts
Формат : BDAV
Формат/Информация : Blu-ray Video
Размер файла : 32,2 Гбайт
Продолжительность : 1 ч. 53 м.
Режим общего битрейта : Переменный
Общий поток : 40,7 Мбит/сек
Максимальный общий битрейт : 35,5 Мбит/сек

Видео
Идентификатор : 4113 (0x1011)
Идентификатор меню : 1 (0x1)
Формат : AVC
Формат/Информация : Advanced Video Codec
Профиль формата : High@L4.1
Параметр CABAC формата : Да
Параметр ReFrames формата : 2 кадра
Идентификатор кодека : 27
Продолжительность : 1 ч. 53 м.
Вид битрейта : Переменный
Ширина : 1920 пикселей
Высота : 1080 пикселей
Соотношение сторон : 16:9
Частота кадров : 23,976 кадра/сек
Цветовое пространство : YUV
Субдискретизация насыщенности : 4:2:0
Битовая глубина : 8 бит
Тип развёртки : Прогрессивная

Аудио #1
Идентификатор : 4352 (0x1100)
Идентификатор меню : 1 (0x1)
Формат : AC-3
Формат/Информация : Audio Coding 3
Расширение режима : CM (complete main)
Параметр Endianness формата : Big
Идентификатор кодека : 129
Продолжительность : 1 ч. 53 м.
Вид битрейта : Постоянный
Битрейт : 448 Кбит/сек
Каналы : 6 каналов
Расположение каналов : Front: L C R, Side: L R, LFE
Частота : 48,0 КГц
Битовая глубина : 16 бит
Метод сжатия : С потерями
Размер потока : 362 Мбайт (1%)
Язык : Russian

Аудио #2
Идентификатор : 4353 (0x1101)
Идентификатор меню : 1 (0x1)
Формат : DTS
Формат/Информация : Digital Theater Systems
Профиль формата : MA / Core
Режим смешивания : Stream extension
Идентификатор кодека : 134
Продолжительность : 1 ч. 53 м.
Вид битрейта : Переменный
Битрейт : 1561 Кбит/сек / 1510 Кбит/сек
Каналы : 6 каналов
Расположение каналов : Front: L C R, Side: L R, LFE
Частота : 48,0 КГц
Битовая глубина : 24 бит
Метод сжатия : Без потерь / Lossy
Язык : Russian

Аудио #3
Идентификатор : 4354 (0x1102)
Идентификатор меню : 1 (0x1)
Формат : DTS
Формат/Информация : Digital Theater Systems
Профиль формата : MA / Core
Режим смешивания : Stream extension
Идентификатор кодека : 134
Продолжительность : 1 ч. 53 м.
Вид битрейта : Переменный
Битрейт : 1561 Кбит/сек / 1510 Кбит/сек
Каналы : 6 каналов
Расположение каналов : Front: L C R, Side: L R, LFE
Частота : 48,0 КГц
Битовая глубина : 24 бит
Метод сжатия : Без потерь / Lossy
Язык : Russian

Аудио #4
Идентификатор : 4355 (0x1103)
Идентификатор меню : 1 (0x1)
Формат : TrueHD / AC-3
Расширение режима : CM (complete main)
Параметр Endianness формата : Big
Режим смешивания : Stream extension
Идентификатор кодека : 131
Продолжительность : 1 ч. 53 м.
Вид битрейта : Переменный / Постоянный
Битрейт : Неизвестно / 640 Кбит/сек
Максимальный битрейт : 5346 Кбит/сек / 640 Кбит/сек
Каналы : 6 каналов
Расположение каналов : Front: L C R, Side: L R, LFE
Частота : 48,0 КГц
Битовая глубина : 16 бит
Язык : English

Аудио #5
Идентификатор : 4356 (0x1104)
Идентификатор меню : 1 (0x1)
Формат : AC-3
Формат/Информация : Audio Coding 3
Профиль формата : Dolby Digital
Расширение режима : CM (complete main)
Параметр Endianness формата : Big
Идентификатор кодека : 129
Продолжительность : 1 ч. 53 м.
Вид битрейта : Постоянный
Битрейт : 192 Кбит/сек
Каналы : 2 канала
Расположение каналов : Front: L R
Частота : 48,0 КГц
Битовая глубина : 16 бит
Метод сжатия : С потерями
Размер потока : 155 Мбайт (0%)
Язык : English

Текст #1
Идентификатор : 4608 (0x1200)
Идентификатор меню : 1 (0x1)
Формат : PGS
Идентификатор кодека : 144
Язык : Russian

Текст #2
Идентификатор : 4609 (0x1201)
Идентификатор меню : 1 (0x1)
Формат : PGS
Идентификатор кодека : 144
Язык : English

Текст #3
Идентификатор : 4610 (0x1202)
Идентификатор меню : 1 (0x1)
Формат : PGS
Идентификатор кодека : 144
Язык : English

Текст #4
Идентификатор : 4611 (0x1203)
Идентификатор меню : 1 (0x1)
Формат : PGS
Идентификатор кодека : 144
Язык : English

pb.wtf



Скачать 30 дней ночи через торрент http://i39.fastpic.ru/big/2012/1009/4d/605d0c7cc98925130940375cdac7144d.jpg Скачать фильм 30 дней ночи через торрент бесплантно в хорошем качестве Описание: Каждый год на 30 дней маленький город Бэрроу на Аляске погружается во тьму. Арктическая ночь - вещь вполне нормальная для этих ... 5 10 1
Info! Золотая раздача, скачанное не засчитывается.
Торрент: Зарегистрирован [2012-10-09 10:00] · скачан: 3 раз
Статус: √ проверено
Размер: 32.18 GB
Как cкачать? Как скачать 30 дней ночи через торрент | qTorrent

% Раздел Тема Автор DL S | L
Фильмы (WEB-DL 720p, 1080p) [ 11.71 GB ] 30 дней ночи / 30 Days of Night [2007 WEB-DL 1080p ] DUB+MVO+3xAVO+DVO bober100 Скачать
2 | 0
Фильмы (Blu-ray, BD-Remux, HDDVD) [ 32.56 GB ] 30 дней ночи / 30 Days of Night [2007 BDRemux 1080p от NovaLan] DUB+MVO+AVO Ворон Скачать
1 | 0
Фильмы (Blu-ray, BD-Remux, HDDVD) [ 19.66 GB ] 30 дней ночи: Темные времена / 30 Days of Night: Dark Days [2010 BDRemux 1080p от NovaLan] Ворон Скачать
1 | 0
Фильмы 2006-2008 [ 1.46 GB ] 30 дней ночи / 30 Days of Night [ 2007 Новая Зеландия HDRip DUB ] кэп Скачать
1 | 0
Фильмы 2010 [ 1.45 GB ] 30 дней ночи: Тёмные дни / 30 Days of Night: Dark Days [2010 BDRip лицензия] SD Скачать
1 | 0
Фильмы [HD 720p, 1080p] (Хороший звук DUB, MVO) [ 8.47 GB ] 30 дней ночи / 30 Days of Night [2007 ] SibFrost Скачать
1 | 1

28-11-2019 20:33  

Отключить всю рекламу на сайте

02-09-2013 18:46 30 дней ночи Скачать торрент  

а раздача будет????pb.wtf



    Дорогой пользователь! Огромная просьба, поблагодарите релизера, оцените раздачу и оставьте свои комментарий, если Вы скачали 30 дней ночи через торрент бесплатно! Внесите свою лепту в развитие PiratBit!
    Комментировать посты могут только пользователи прошедшие не сложную регистрацию
    Показать сообщения:    

    30 дней ночи через торрент
    Скачать бесплатно 30 дней ночи
    30 дней ночи скачать торрент
    30 дней ночи смотреть онлайн
    Cкачать фильм 30 дней ночи бесплатно
    30 дней ночи скачать торрент в хорошем качестве
    30 дней ночи смотреть онлайн бесплатно в хорошем качестве


    Вы не можете начинать темы
    Вы не можете отвечать на сообщения
    Вы не можете редактировать свои сообщения
    Вы не можете удалять свои сообщения
    Вы не можете голосовать в опросах
    Вы не можете прикреплять файлы к сообщениям
    Вы можете скачивать файлы