Всегда рабочее зеркало без VPN и Proxy просто перед .vidak.icu напиши любое слово или цифру, Пример http://wu9q.vidak.icu

MVO

2 сезон

2 сезон

1

1 сезон

iTunes

2 сезон

13

1 сезон

Распродажа

pack

Рекомендуем

Пиратка

30

ВАЖНО

RePack

MK11

RePack

jed

RePack

fifa19

RePack

RDR2

RePack

NEED FOR SPEED™ PAYBACK

Кинопоиск HD

6 сезон

 Острые козырьки 6 сезон

Все сериалы

все сериалы на PB.wtf

RePack

FAR CRY 5

Anonymous, нам критически не хватает 5601 руб. на оплату серверов и переферии за Апрель, помоги нам пожалуйста, вся надежда только на тебя. В благодарность мы отключим тебе всю рекламу на сайте!

×
  
Magnet ссылка

Раскрашенная кожа 2 / Hua Pi 2 (Вуершан) [2012 г., фэнтези, боевик, триллер, драма, BDRip 3D 1080p, DVO] Горизонтальная анаморфная стереопара pb.wtf

Раскрашенная кожа 2 через торрент pb.wtf

Размер: 11.97 GB | Добавлен: 9 лет 7 мес. назад | Торрент скачан:261 раз
Смотреть онлайн Раскрашенная кожа 2 | Скачать    Ребята, помогите собрать деньги на оплату серверов!!!

09-10-2012 16:43 Раскрашенная кожа 2 Скачать торрент  

Раскрашенная кожа 2 / Hua Pi 2

Год выпуска: 2012
Страна: Китай
Жанр: фэнтези, боевик, триллер, драма
Продолжительность: 02:11:38
Перевод: Любительский двухголосый

Режиссер: Вуершан
Продюссер: Guo-Fu Chen, Хелен Ли
Сценарий: -

Мировой рейтинг IMDB 6.20 (500)


В ролях: Чжоу Сюнь, Чэнь Кунь, Чжао Вэй, Ми Янг, Уилльям Фенг, Фэй Ксинг, Tingjia Chen, Морган Бенуа

Описание: Чтобы стать смертным демон должен прожить на земле несколько сот лет, но и этого недостаточно, чтобы ощутить весь спектр человеческих эмоций и подлинную экзистенциальную грусть. Для получения этих бонусов демон должен найти человека, готового пожертвовать собственными чувствами и собственной бессмертной душой.

Доп. информация: Горизонтальная анаморфная стереопара, для просмотра на 3D-телевизорах (рип проверен на Samsung UE-C7000)
Формат 3d: Anamorph SideBySide
Перевод: Любительский (двухголосый закадровый) den904, DeadSno

Субтитры - [Перевод и тайминг субтитров: Den Shark @ ORKBOY]

Качество: BDRip 1080p
Формат: MKV
Видео кодек: H.26x
Аудио кодек: AC3
Видео: AVC, 11.7 Mbps, 1920x1080, 23.976 fps
Аудио#1: AC3, 448 Kbps, 6 channels, 48.0 KHz(RUS, den904 & DeadSno)
Аудио#2: AC3, 640 Kbps, 6 channels, 48.0 KHz(Chinese)

Общее
Уникальный идентификатор : 202362619479849408195896379478330059651 (0x983D9F72F8E91585AFCFC8CBFEFC2B83)
Полное имя : D:xxxPainted.Skin.The.Resurrection 3D.Rus.HSBSPainted.Skin.The.Resurrection 3D.Rus.HSBS.mkv
Формат : Matroska
Версия формата : Version 2
Размер файла : 12,0 Гбайт
Продолжительность : 2 ч. 11 м.
Общий поток : 13,0 Мбит/сек
Дата кодирования : UTC 2012-10-09 07:31:41
Программа кодирования : mkvmerge v5.8.0 ('No Sleep / Pillow') built on Sep 2 2012 15:37:04
Библиотека кодирования : libebml v1.2.3 libmatroska v1.3.0

Видео
Идентификатор : 1
Формат : AVC
Формат/Информация : Advanced Video Codec
Профиль формата : High@L4.1
Параметр CABAC формата : Да
Параметр ReFrames формата : 2 кадра
Идентификатор кодека : V_MPEG4/ISO/AVC
Продолжительность : 2 ч. 11 м.
Битрейт : 11,7 Мбит/сек
Ширина : 1920 пикселей
Высота : 1080 пикселей
Соотношение сторон : 16:9
Режим частоты кадров : Постоянный
Частота кадров : 23,976 кадра/сек
Цветовое пространство : YUV
Субдискретизация насыщенности : 4:2:0
Битовая глубина : 8 бит
Тип развёртки : Прогрессивная
Бит/(Пиксели*Кадры) : 0.235
Размер потока : 10,7 Гбайт (90%)
Заголовок : edis. СПАМ
Библиотека кодирования : x264 core
Язык : Chinese
Default : Да
Forced : Нет
Основные цвета : BT.709
Характеристики трансфера : BT.709
Коэффициенты матрицы : BT.709

Аудио #1
Идентификатор : 2
Формат : AC-3
Формат/Информация : Audio Coding 3
Расширение режима : CM (complete main)
Параметр Endianness формата : Big
Идентификатор кодека : A_AC3
Продолжительность : 2 ч. 11 м.
Вид битрейта : Постоянный
Битрейт : 448 Кбит/сек
Каналы : 5 каналов
Расположение каналов : Front: L C R, Side: L R
Частота : 48,0 КГц
Битовая глубина : 16 бит
Метод сжатия : С потерями
Размер потока : 422 Мбайт (3%)
Заголовок : den904, DeadSno
Язык : Russian
Default : Да
Forced : Нет

Аудио #2
Идентификатор : 3
Формат : AC-3
Формат/Информация : Audio Coding 3
Расширение режима : CM (complete main)
Параметр Endianness формата : Big
Идентификатор кодека : A_AC3
Продолжительность : 2 ч. 11 м.
Вид битрейта : Постоянный
Битрейт : 640 Кбит/сек
Каналы : 6 каналов
Расположение каналов : Front: L C R, Side: L R, LFE
Частота : 48,0 КГц
Битовая глубина : 16 бит
Метод сжатия : С потерями
Размер потока : 602 Мбайт (5%)

pb.wtf



Скачать Раскрашенная кожа 2 через торрент https://pic1.kartinco.top/images/111/nxq4cnlshw.jpg Скачать, смотреть онлайн Раскрашенная кожа 2 бесплантно в хорошем качестве Описание: Чтобы стать смертным демон должен прожить на земле несколько сот лет, но и этого недостаточно, чтобы ощутить весь спектр ... 5 10 1
Info! Золотая раздача, скачанное не засчитывается.
Торрент: Зарегистрирован [2012-10-09 16:43] · скачан: 261 раз
Статус: √ проверено
Размер: 11.97 GB
Как cкачать? Как скачать Раскрашенная кожа 2 через торрент | UTorrent

28-11-2019 20:33  

Отключить всю рекламу на сайте

    Дорогой пользователь! Огромная просьба, поблагодарите релизера, оцените раздачу и оставьте свои комментарий, если Вы скачали Раскрашенная кожа 2 через торрент бесплатно!
    Комментировать посты могут только пользователи прошедшие не сложную регистрацию
    Показать сообщения:    

    Раскрашенная кожа 2 через торрент
    Скачать бесплатно Раскрашенная кожа 2
    Раскрашенная кожа 2 скачать торрент
    Раскрашенная кожа 2 смотреть онлайн
    Cкачать фильм Раскрашенная кожа 2 бесплатно
    Раскрашенная кожа 2 скачать торрент в хорошем качестве
    Раскрашенная кожа 2 смотреть онлайн бесплатно в хорошем качестве


    Вы не можете начинать темы
    Вы не можете отвечать на сообщения
    Вы не можете редактировать свои сообщения
    Вы не можете удалять свои сообщения
    Вы не можете голосовать в опросах
    Вы не можете прикреплять файлы к сообщениям
    Вы можете скачивать файлы