2 сезон

iTunes

MVO

1

2 сезон

iTunes

iTunes

1 сезон

RePack

30

Ultimate

ВАЖНО

ИГРА 18+

pack

RePack

MK11
pack

Легкие деньги

RePack

jed

RePack

fifa19

RePack

RDR2

RePack

NEED FOR SPEED™ PAYBACK

4 сезон

9 сезон

Бесстыжие 9 сезон

Все сериалы

все сериалы на PB.wtf

RePack

FAR CRY 5

Anonymous, доброй ночи, мы не успеваем собрать деньги на оплату серверов за декабрь и январь, помогите нам пожалуйста в это трудное время. В качестве благодарности мы отключим Вам всю рекламу на сайте (укажите свой ник в строку Ваше имя)!

×
  
Magnet ссылка

Что такое секс / How Sex Works [2012 г., документальный, PDTVRip, Субтитры] pb.wtf

Что такое секс через торрент pb.wtf

Размер: 550 MB | Добавлен: 8 лет 3 мес. назад | Торрент скачан:264 раза
Скачать  

09-10-2012 20:06 Что такое секс Скачать торрент  

Что такое секс / How Sex Works

Год выпуска: 2012
Страна: Великобритания
Жанр: документальный
Продолжительность: 00.56.58
Перевод: Субтитры

Режиссер: Yavar Abbas, Bruce Fletcher

Описание: Используя новейшие научные исследования и компьютерную графику, создатели этого трехсерийного фильма путешествуют внутри человеческого тела, чтобы увидеть какие психологические, неврологические и физиологические изменения происходят в организме человека до и после секса.

Первый раз. Первая любовь и первый секс являются незабываемыми моментами нашей жизни. В этом эпизоде мы увидим, как молодые юноши и девушки становятся взрослыми, впервые вступая на закрытую до этого территорию секса, а также какие изменения при этом происходит в их умах и телах.

Качество: PDTVRip
Формат: AVI
Видео кодек: XviD
Аудио кодек: MP3
Видео: 624Х352, 16/9, 25 fps, XVID, 1217 Kbps, 0.222 bit/pixel
Аудио#1: English, 48 kHz, MPEG Layer 3, 2 ch, 119.00 kbps
скриншот   скриншот   скриншот   скриншот   скриншот   скриншот  
скриншот  

General

Format : AVI
Format/Info : Audio Video Interleave
File size : 550 MiB
Duration : 56mn 58s
Overall bit rate mode : Variable
Overall bit rate : 1 349 Kbps
Writing application : VirtualDubMod 1.5.10.2 (build 2540/release)
Writing library : VirtualDubMod build 2540/release

Video
ID : 0
Format : MPEG-4 Visual
Format profile : Advanced Simple@L5
Format settings, BVOP : 2
Format settings, QPel : No
Format settings, GMC : No warppoints
Format settings, Matrix : Default (H.263)
Codec ID : XVID
Codec ID/Hint : XviD
Duration : 56mn 58s
Bit rate : 1 217 Kbps
Width : 624 pixels
Height : 352 pixels
Display aspect ratio : 16:9
Frame rate : 25.000 fps
Color space : YUV
Chroma subsampling : 4:2:0
Bit depth : 8 bits
Scan type : Progressive
Compression mode : Lossy
Bits/(Pixel*Frame) : 0.222
Stream size : 496 MiB (90%)
Writing library : XviD 1.2.1 (UTC 2008-12-04)

Audio
ID : 1
Format : MPEG Audio
Format version : Version 1
Format profile : Layer 3
Mode : Joint stereo
Codec ID : 55
Codec ID/Hint : MP3
Duration : 56mn 58s
Bit rate mode : Variable
Bit rate : 119 Kbps
Minimum bit rate : 32.0 Kbps
Channel(s) : 2 channels
Sampling rate : 48.0 KHz
Compression mode : Lossy
Stream size : 48.4 MiB (9%)
Alignment : Aligned on interleaves
Interleave, duration : 24 ms (0.60 video frame)
Interleave, preload duration : 627 ms
Writing library : LAME3.98r
Encoding settings : -m j -V 5 -q 2 -lowpass 16.5 --vbr-new -b 32

pb.wtf



Скачать Что такое секс через торрент http://pic.kartinco.top/images/1/fu2vaom5o9.png Скачать фильм Что такое секс через торрент бесплантно в хорошем качестве Описание: Используя новейшие научные исследования и компьютерную графику, создатели этого трехсерийного фильма путешествуют внутри ... 10 10 2
Info! Золотая раздача, скачанное не засчитывается.
Торрент: Зарегистрирован [2012-10-09 20:06] · скачан: 264 раз
Статус: √ проверено
Размер: 550 MB
Как cкачать? Как скачать Что такое секс через торрент | UTorrent

28-11-2019 20:33  

Отключить всю рекламу на сайте

09-10-2012 20:42 Что такое секс Скачать торрент  

может как-нибудь скачаю и открою себе глаза на этот чудесный процесс)pb.wtf



09-10-2012 22:17 Что такое секс Скачать торрент  

Я еще совковый. А тогда еще секса не было. Потому не знаю, что это такое и качать боюсь pb.wtf



10-10-2012 01:16 Что такое секс Скачать торрент  

Надеюсь будет интересноpb.wtf



10-10-2012 02:19 Что такое секс Скачать торрент  

Turistos писал(а):

Я еще совковый. А тогда еще секса не было. Потому не знаю, что это такое и качать боюсь

))) Да не ведомое действо pb.wtf



10-10-2012 05:06 Что такое секс Скачать торрент  

Шож такое прям все покажуть? Я стесняться буду. )pb.wtf



    Дорогой пользователь! Огромная просьба, поблагодарите релизера, оцените раздачу и оставьте свои комментарий, если Вы скачали Что такое секс через торрент бесплатно! Внесите свою лепту в развитие PiratBit!
    Комментировать посты могут только пользователи прошедшие не сложную регистрацию
    Показать сообщения:    

    Что такое секс через торрент
    Скачать бесплатно Что такое секс
    Что такое секс скачать торрент
    Что такое секс смотреть онлайн
    Cкачать фильм Что такое секс бесплатно
    Что такое секс скачать торрент в хорошем качестве
    Что такое секс смотреть онлайн бесплатно в хорошем качестве


    Вы не можете начинать темы
    Вы не можете отвечать на сообщения
    Вы не можете редактировать свои сообщения
    Вы не можете удалять свои сообщения
    Вы не можете голосовать в опросах
    Вы не можете прикреплять файлы к сообщениям
    Вы можете скачивать файлы