1 сезон

1 сезон

iTunes

1

КиноПоиск HD

Кинопоиск HD

iTunes

13

1 сезон

RePack

30

Новинка

ВАЖНО

ИГРА 18+

pack

RePack

MK11
pack

Легкие деньги

RePack

jed

RePack

fifa19

RePack

RDR2

RePack

NEED FOR SPEED™ PAYBACK

4 сезон

9 сезон

Бесстыжие 9 сезон

Все сериалы

все сериалы на PB.wtf

RePack

FAR CRY 5
  
Magnet ссылка

Обмен телами / Xchange (Аллан Мойле) [2001 г., Боевик, фантастика,триллер, DVDRip, MVO, лицензия] pb.wtf

Обмен телами через торрент pb.wtf

Размер: 1.37 GB | Добавлен: 8 лет 6 мес. назад | Торрент скачан:62 раза
Скачать  

09-10-2012 22:53 Обмен телами Скачать торрент  

Обмен телами / Xchange

Год выпуска: 2001
Страна: Канада
Жанр: Боевик, фантастика,триллер
Продолжительность: 01:45:03
Перевод: Профессиональный многоголосый, Лицензия

Режиссер: Аллан Мойле
Продюссер: Жан Десорно, Марк С. Гренье, Марк Эмин
Сценарий: Кристофер Пэлхам, Леопольд Сен-Пьерр

Премьера в мире: 19 января 2001

MPAA: R- лицам до 17 лет обязательно присутствие взрослого
IMDb: 5.50 (1 806)
Кинопоиск: 6.206 342

В ролях: Стивен Болдуин, Паскаль Буссирес, Ким Коутс, Кайл МакЛахлан, Том Рэк, Арнольд Пиннок, Чарльз Пауэлл, Джуда Кац, Шон Дивайн, Джанет Киддер

Описание: В недалеком будущем, когда клонирование уже стало обычным делом, достижения биотехнологии позволили перемещаться в пространстве, обмениваясь телами… После убийства управляющего одной могущественной корпорации Стивен Тоффлер вынужден отправиться в Сан-Франциско, покинув свое тело.

А позже оно исчезает, сделав невозможным возвращение обратно! Теперь у Тоффлера есть только 2 дня, чтобы найти себя самого или он умрет! Слишком мало времени, учитывая количество желающих ускорить этот процесс…

Качество: DVDRip
Формат: AVI
Видео кодек: XviD
Аудио кодек: AC3
Видео: 704x512 (1.38:1), 25 fps, XviD MPEG-4 ~1469 kbps avg, 0.16 bit/pixel
Аудио#1: 48 kHz, AC3 Dolby Digital, 3/2 (L,C,R,l,r) + LFE ch, ~384.00 kbps avg
Релиз от: сторонний ресурс









Общее
Полное имя : D:torrentObmen.telami.2000.XviD.DVDRip.сторонний ресурс.avi
Формат : AVI
Формат/Информация : Audio Video Interleave
Размер файла : 1,37 Гбайт
Продолжительность : 1 ч. 45 м.
Общий поток : 1863 Кбит/сек
Программа кодирования : VirtualDubMod 1.5.10.2 (build 2540/release)
Библиотека кодирования : VirtualDubMod build 2540/release

Видео
Идентификатор : 0
Формат : MPEG-4 Visual
Профиль формата : Advanced Simple@L5
Параметр BVOP формата : 2
Параметр QPel формата : Нет
Параметр GMC формата : Без точки перехода
Параметр матрицы формата : Default (MPEG)
Режим смешивания : Сжатый битовый поток
Идентификатор кодека : XVID
Идентификатор кодека/Подсказка : XviD
Продолжительность : 1 ч. 45 м.
Битрейт : 1470 Кбит/сек
Ширина : 704 пикселя
Высота : 512 пикселей
Соотношение сторон : 1,375
Частота кадров : 25,000 кадров/сек
Цветовое пространство : YUV
Субдискретизация насыщенности : 4:2:0
Битовая глубина : 8 бит
Тип развёртки : Прогрессивная
Метод сжатия : С потерями
Бит/(Пиксели*Кадры) : 0.163
Размер потока : 1,08 Гбайт (79%)
Библиотека кодирования : XviD 1.2.0.dev47 (UTC 2006-11-01)

Аудио
Идентификатор : 1
Формат : AC-3
Формат/Информация : Audio Coding 3
Расширение режима : CM (complete main)
Параметр Endianness формата : Big
Идентификатор кодека : 2000
Продолжительность : 1 ч. 45 м.
Вид битрейта : Постоянный
Битрейт : 384 Кбит/сек
Каналы : 6 каналов
Расположение каналов : Front: L C R, Side: L R, LFE
Частота : 48,0 КГц
Битовая глубина : 16 бит
Метод сжатия : С потерями
Размер потока : 289 Мбайт (21%)
Выравнивание : Разделение по промежуткам
Продолжительность промежутка : 40 мс. (1,00 видеокадр)
Время предзагрузки промежутка : 500 мс.

pb.wtf



Скачать Обмен телами через торрент https://pic.kartinco.top/images/1/sgq5ohwybt.jpg Скачать фильм Обмен телами через торрент бесплантно в хорошем качестве Описание: В недалеком будущем, когда клонирование уже стало обычным делом, достижения биотехнологии позволили перемещаться в пространстве, ... 5 10 1
Info! Золотая раздача, скачанное не засчитывается.
Торрент: Зарегистрирован [2012-10-09 22:53] · скачан: 62 раз
Статус: √ проверено
Размер: 1.37 GB
Как cкачать? Как скачать Обмен телами через торрент | UTorrent

% Раздел Тема Автор DL S | L
Фильмы до 2000 г. [ 696 MB ] Обмен телами / Xchange [2000 DVDRip] Один 777 Скачать
1 | 0

28-11-2019 20:33  

Отключить всю рекламу на сайте

    Дорогой пользователь! Огромная просьба, поблагодарите релизера, оцените раздачу и оставьте свои комментарий, если Вы скачали Обмен телами через торрент бесплатно! Внесите свою лепту в развитие PiratBit!
    Комментировать посты могут только пользователи прошедшие не сложную регистрацию
    Показать сообщения:    

    Обмен телами через торрент
    Скачать бесплатно Обмен телами
    Обмен телами скачать торрент
    Обмен телами смотреть онлайн
    Cкачать фильм Обмен телами бесплатно
    Обмен телами скачать торрент в хорошем качестве
    Обмен телами смотреть онлайн бесплатно в хорошем качестве


    Вы не можете начинать темы
    Вы не можете отвечать на сообщения
    Вы не можете редактировать свои сообщения
    Вы не можете удалять свои сообщения
    Вы не можете голосовать в опросах
    Вы не можете прикреплять файлы к сообщениям
    Вы можете скачивать файлы