новый адрес
Мега распродажа FORZA HORIZON 4 ULTIMATE+ВСЕ DLC+ОНЛАЙН всего за 499р. 349 руб. (супер цена). Внимание количество ограничено!!!

iTunes

1+1

iTunes

мы

iTunes

1

iTunes

Чернобыль

iTunes

Ральф против интернета

Лицензия

ПШазам

Лицензия

Оно 2

Лицензия

30
pack

ВАЖНО

!!Акция!!

Alien_RageХит недели

RePack

Resident Evil 21

ИГРА 18+

pack

RePack

Metro:Exodus

!!Акция!!

Alien_Rage

RePack

fifa19

RePack

Assassins Creed: Odyssey

RePack

NEED FOR SPEED™ PAYBACK

3 сезон

9 сезон

Бесстыжие 9 сезон

Все сериалы

все сериалы на PB.wtf

RePack

FAR CRY 5
Ребята, катастрофически не хватает 1900р. для оплаты серверов за Октябрь (всвязи с блокировками трафик упал в 3 раза), 1-2р., выручайте.
  

Злой дух Ямбуя (Борис Бунеев) [1977 г., Драма, приключения, экранизация., SATRip, MVO] pb.wtf

Злой дух Ямбуя через торрент pb.wtf

Размер: 745 MB | Добавлен: 7 лет 1 мес. назад | Торрент скачан:34 раза
Скачать  

11-10-2012 15:59 Злой дух Ямбуя Скачать торрент  

Злой дух Ямбуя

Год выпуска: 1977
Страна: СССР
Жанр: Драма, приключения, экранизация.
Продолжительность: 01:28:48
Перевод: Профессиональный многоголосый

Режиссер: Борис Бунеев
Сценарий: Борис Бунеев
Директор фильма: Николай Неживов
Oператор: Александр Гарибян, Анатолий Гришко, Николай Пучков
Kомпозитор: Евгений Геворгян
Xудожник: Ольга Беднова

Премьера в мире: 16 апреля 1981
Pелиз на DVD: 19 ноября 2009, «Новый Диск»,

IMDb: 7.10 (64)
http://www.kinopoisk.ru/film/45362/

В ролях: Юрий Заборовский, Ольга Ензак, Родна Ешонов, Филимон Сергеев, Владимир Круглов, Александр Кавалеров, Николай Куваченок, Николай Дмитриев, Зинаида Пикунова.

Описание: По повести Григория Федосеева, основанной на реальных событиях. Первые послевоенные годы. В таежных лесах Восточной Сибири проводятся геодезические исследования. В лагере экспедиции готовятся к возвращению на базу. Радиограмма из штаба о том, что на гольце Ямбуй бесследно исчез наблюдатель, заставила изменить планы.

В поисках пропавшего принимают активное участие местные жители — эвенки, замечательные охотники и следопыты, хорошо знающие тайгу. Много опасных приключений ждет смельчаков прежде чем они обнаружат истинного виновника трагедии — медведя-людоеда. Неторопливый ритм, красивые и в то же время беспокоящие виды природы, создают тревожную атмосферу подстерегающей на каждом шагу опасности.

А экзотический колорит эвенкийских традиций и верований делают фильм увлекательным для всех, кто любит созерцать и проникаться настроением окружения!

Качество: SATRip
Формат: AVI
Видео кодек: XviD
Аудио кодек: MP3
Видео: MPEG-4 Visual, XVID, 1036 Кбит/сек, 25,000 кадров/сек, 624x480
Аудио#1: MPEG Audio, MP3 , 128 Кбит/сек, 2канала, 48,0 КГц





Формат : AVI
Формат/Информация : Audio Video Interleave
Размер файла : 745 Мбайт
Продолжительность : 1 ч. 28 м.
Общий поток : 1173 Кбит/сек
Программа кодирования : VirtualDubMod 1.5.10.3 | www.virtualdub-fr.org || (build 2550/release)
Библиотека кодирования : VirtualDubMod build 2550/release

Видео
Идентификатор : 0
Формат : MPEG-4 Visual
Профиль формата : Advanced Simple@L5
Параметр BVOP формата : 1
Параметр QPel формата : Нет
Параметр GMC формата : Без точки перехода
Параметр матрицы формата : Default (MPEG)
Идентификатор кодека : XVID
Идентификатор кодека/Подсказка : XviD
Продолжительность : 1 ч. 28 м.
Битрейт : 1036 Кбит/сек
Ширина : 624 пикселя
Высота : 480 пикселей
Соотношение сторон : 4:3
Частота кадров : 25,000 кадров/сек
Цветовое пространство : YUV
Субдискретизация насыщенности : 4:2:0
Битовая глубина : 8 бит
Тип развёртки : Прогрессивная
Метод сжатия : С потерями
Бит/(Пиксели*Кадры) : 0.138
Размер потока : 658 Мбайт (88%)
Библиотека кодирования : XviD 1.2.1 (UTC 2008-12-04)

Аудио
Идентификатор : 1
Формат : MPEG Audio
Версия формата : Version 1
Профиль формата : Layer 3
Идентификатор кодека : 55
Идентификатор кодека/Подсказка : MP3
Продолжительность : 1 ч. 28 м.
Вид битрейта : Постоянный
Битрейт : 128 Кбит/сек
Каналы : 2 канала
Частота : 48,0 КГц
Метод сжатия : С потерями
Размер потока : 81,3 Мбайт (11%)
Выравнивание : Соединение по промежуткам
Продолжительность промежутка : 40 мс. (1,00 видеокадр)
Время предзагрузки промежутка : 504 мс.
Библиотека кодирования : L3.99r
Настройки программы : -m s -V 4 -q 2 -lowpass 17 -b 128

pb.wtf



Скачать Злой дух Ямбуя через торрент http://pic.kartinco.top/images/1/nkkztxmpa5.jpg Скачать фильм Злой дух Ямбуя через торрент бесплантно в хорошем качестве Описание: По повести Григория Федосеева, основанной на реальных событиях. Первые послевоенные годы. В таежных лесах Восточной Сибири ... 9.9 10 7
Info! Золотая раздача, скачанное не засчитывается.
Торрент: Зарегистрирован [2012-10-11 15:59] · скачан: 34 раз
Статус: √ проверено
Размер: 745 MB
Как cкачать? Как скачать Злой дух Ямбуя через торрент | qTorrent


>> Регистрируемся здесь <<






Отзывы и комментарии о схеме читаем и пишем здесь: ---> Отзывы и комментарии о схеме

Новые благодарочки в телеграм довольных пользователей:
скриншот   скриншот   скриншот   скриншот   скриншот

11-10-2012 16:14 Злой дух Ямбуя Скачать торрент  

Помню, в детстве смотрел, жутко боялся. Медведь-людоед, прямо фильм ужасов : ) Пересматривал не так давно, и вновь понравился. Рекомендую.pb.wtf



14-06-2013 12:31 Злой дух Ямбуя Скачать торрент  

Спасибо!Хороший фильм!pb.wtf



    Дорогой пользователь! Огромная просьба, поблагодарите релизера, оцените раздачу и оставьте свои комментарий, если Вы скачали Злой дух Ямбуя через торрент бесплатно! Внесите свою лепту в развитие PiratBit!
    Комментировать посты могут только пользователи прошедшие не сложную регистрацию
    Показать сообщения:    

    Злой дух Ямбуя через торрент
    Скачать бесплатно Злой дух Ямбуя
    Злой дух Ямбуя скачать торрент
    Злой дух Ямбуя смотреть онлайн
    Cкачать фильм Злой дух Ямбуя бесплатно
    Злой дух Ямбуя скачать торрент в хорошем качестве
    Злой дух Ямбуя смотреть онлайн бесплатно в хорошем качестве


    Вы не можете начинать темы
    Вы не можете отвечать на сообщения
    Вы не можете редактировать свои сообщения
    Вы не можете удалять свои сообщения
    Вы не можете голосовать в опросах
    Вы не можете прикреплять файлы к сообщениям
    Вы можете скачивать файлы