Ссылка на приватное зеркало нашего сайта всего за 1$. Внимание количество ограничено!!!

2 сезон

iTunes

1 сезон

1

2 сезон

2 сезон

iTunes

1 сезон

RePack

30

Ultimate

ВАЖНО

ИГРА 18+

pack

RePack

MK11
pack

Забери бонус

RePack

jed

!!Акция!!

Alien_Rage

RePack

fifa19

RePack

Assassins Creed: Odyssey

RePack

NEED FOR SPEED™ PAYBACK

4 сезон

9 сезон

Бесстыжие 9 сезон

Все сериалы

все сериалы на PB.wtf

RePack

FAR CRY 5
  

Папа-досвидос / That's My Boy (Шон Андерс) [2012 г., комедия, BD-Remux, DUB, лицензия] pb.wtf

Папа-досвидос через торрент pb.wtf

Размер: 23.45 GB | Добавлен: 8 лет 1 мес. назад | Торрент скачан:200 раз
Скачать  

11-10-2012 16:53 Папа-досвидос Скачать торрент  

Папа-досвидос / That's My Boy

Год выпуска: 2012
Страна: США
Жанр: комедия
Продолжительность: 01:56:03
Перевод: Дубляж, Лицензия

Режиссер: Шон Андерс
Продюссер: Аллен Коверт, Джек Джиррапуто, Хезер Парри
Сценарий: Дэвид Каспе

Мировой рейтинг IMDB 5.30 (12 443)


В ролях: Адам Сэндлер, Энди Сэмберг, Лейтон Мистер, Майло Вентимилья, Ванилла Айс, Пегги Стюарт, Блейк Кларк, Меган Фэй, Тони Орландо, Джеймс Каан, Сергей Бурунов, Антон Эльдаров, Василиса Воронина, Иван Жарков, Александр Дзюба

Описание: Переспав с «очень плохой училкой» прямо в школе, тинейджер становится отцом «по залету», а его зрелая пассия попадает в тюрьму за совращение малолетнего. Теперь юный папа-одиночка вынужден заботиться о сыне до его совершеннолетия, а затем благополучно исчезает в неизвестном направлении. И вот, много лет спустя, оказавшись на мели, эксцентричный папаша-инфантил словно ураган врывается в жизнь сына накануне его свадьбы и своими безумными выходками переворачивает всё вверх дном.

Доп. информация: EXTENDED версия! Отсутствует около 1.5 минуты перевода!

Качество: BD-Remux
Формат: MKV
Видео кодек: AVC
Аудио кодек: AC3
Видео: MPEG-4 AVC, 26.4 Мбит/с, 1920x1080, 23.976 кадр/с
Аудио#1: Русский (AC3, 6 ch, 384 Кбит/с, 48 Кгц)
Аудио#2: английский (DTS-HD MA, 6 ch, 3468 Кбит/с, 48 Кгц)
Субтитры: Английские, испанские, французские

Общее
Уникальный идентификатор : 253658460736783124984189423318700083313 (0xBED4D7AF42B6628E99D8933DE42B4871)
Полное имя : E:That's My Boy 2012 1080p Blu-ray Remux AVC DTS-HD MA 5.1.mkv
Формат : Matroska
Версия формата : Version 2
Размер файла : 23,5 Гбайт
Продолжительность : 1 ч. 56 м.
Режим общего битрейта : Переменный
Общий поток : 28,9 Мбит/сек
Название фильма : Denils
Дата кодирования : UTC 2012-10-10 18:41:47
Программа кодирования : mkvmerge v4.0.0 ('The Stars were mine') сборка от Jun 6 2010 16:18:42
Библиотека кодирования : libebml v1.0.0 + libmatroska v1.0.0

Видео
Идентификатор : 1
Формат : AVC
Формат/Информация : Advanced Video Codec
Профиль формата : High@L4.1
Параметр CABAC формата : Да
Параметр ReFrames формата : 2 кадра
Параметр GOP формата : M=1, N=10
Идентификатор кодека : V_MPEG4/ISO/AVC
Продолжительность : 1 ч. 56 м.
Вид битрейта : Переменный
Битрейт : 26,4 Мбит/сек
Ширина : 1920 пикселей
Высота : 1080 пикселей
Соотношение сторон : 16:9
Режим частоты кадров : Постоянный
Частота кадров : 23,976 кадра/сек
Цветовое пространство : YUV
Субдискретизация насыщенности : 4:2:0
Битовая глубина : 8 бит
Тип развёртки : Прогрессивная
Бит/(Пиксели*Кадры) : 0.531
Размер потока : 21,4 Гбайт (91%)
Язык : English
Default : Нет
Forced : Нет

Аудио #1
Идентификатор : 2
Формат : AC-3
Формат/Информация : Audio Coding 3
Расширение режима : CM (complete main)
Параметр Endianness формата : Big
Идентификатор кодека : A_AC3
Продолжительность : 1 ч. 56 м.
Вид битрейта : Постоянный
Битрейт : 384 Кбит/сек
Каналы : 6 каналов
Расположение каналов : Front: L C R, Side: L R, LFE
Частота : 48,0 КГц
Битовая глубина : 16 бит
Метод сжатия : С потерями
Размер потока : 319 Мбайт (1%)
Язык : Russian
Default : Нет
Forced : Да

Аудио #2
Идентификатор : 3
Формат : DTS
Формат/Информация : Digital Theater Systems
Профиль формата : MA / Core
Идентификатор кодека : A_DTS
Продолжительность : 1 ч. 56 м.
Вид битрейта : Переменный
Битрейт : 1561 Кбит/сек / 1510 Кбит/сек
Каналы : 6 каналов
Расположение каналов : Front: L C R, Side: L R, LFE
Частота : 48,0 КГц
Битовая глубина : 24 бит
Метод сжатия : Без потерь / Lossy
Язык : English
Default : Нет
Forced : Нет

Текст #1
Идентификатор : 4
Формат : PGS
Идентификатор кодека : S_HDMV/PGS
Идентификатор кодека/Информация : The same subtitle format used on BDs/HD-DVDs
Язык : English
Default : Нет
Forced : Нет

Текст #2
Идентификатор : 5
Формат : PGS
Идентификатор кодека : S_HDMV/PGS
Идентификатор кодека/Информация : The same subtitle format used on BDs/HD-DVDs
Заголовок : SDH
Язык : English
Default : Нет
Forced : Нет

Текст #3
Идентификатор : 6
Формат : PGS
Идентификатор кодека : S_HDMV/PGS
Идентификатор кодека/Информация : The same subtitle format used on BDs/HD-DVDs
Язык : French
Default : Нет
Forced : Нет

Текст #4
Идентификатор : 7
Формат : PGS
Идентификатор кодека : S_HDMV/PGS
Идентификатор кодека/Информация : The same subtitle format used on BDs/HD-DVDs
Язык : Spanish
Default : Нет
Forced : Нет

Меню
00:00:00.000 : en:00:00:00.000
00:08:43.314 : en:00:08:43.314
00:13:34.397 : en:00:13:34.397
00:20:24.056 : en:00:20:24.056
00:29:34.940 : en:00:29:34.940
00:37:35.044 : en:00:37:35.044
00:42:40.099 : en:00:42:40.099
00:48:39.500 : en:00:48:39.500
00:55:37.209 : en:00:55:37.209
01:01:34.524 : en:01:01:34.524
01:08:21.431 : en:01:08:21.431
01:16:37.968 : en:01:16:37.968
01:24:46.832 : en:01:24:46.832
01:29:29.864 : en:01:29:29.864
01:35:47.408 : en:01:35:47.408
01:47:11.759 : en:01:47:11.759

pb.wtf



Скачать Папа-досвидос через торрент http://i44.fastpic.ru/big/2012/1011/de/b14846bf9c28acdcdc4447fad4392dde.jpg Скачать фильм Папа-досвидос через торрент бесплантно в хорошем качестве Описание: Переспав с «очень плохой училкой» прямо в школе, тинейджер становится отцом «по залету», а его зрелая пассия попадает в тюрьму за ... 8.6 10 5
Info! Золотая раздача, скачанное не засчитывается.
Торрент: Зарегистрирован [2012-10-11 16:53] · скачан: 200 раз
Статус: √ проверено
Размер: 23.45 GB
Как cкачать? Как скачать Папа-досвидос через торрент | qTorrent

28-11-2019 20:33  

Отключить всю рекламу на сайте

11-10-2012 18:20 Папа-досвидос Скачать торрент  

Жду dvd-rip, аля hd-rip... :)pb.wtf



18-10-2012 11:23 Папа-досвидос Скачать торрент  

скорость скорость скоростьpb.wtf



    Дорогой пользователь! Огромная просьба, поблагодарите релизера, оцените раздачу и оставьте свои комментарий, если Вы скачали Папа-досвидос через торрент бесплатно! Внесите свою лепту в развитие PiratBit!
    Комментировать посты могут только пользователи прошедшие не сложную регистрацию
    Показать сообщения:    

    Папа-досвидос через торрент
    Скачать бесплатно Папа-досвидос
    Папа-досвидос скачать торрент
    Папа-досвидос смотреть онлайн
    Cкачать фильм Папа-досвидос бесплатно
    Папа-досвидос скачать торрент в хорошем качестве
    Папа-досвидос смотреть онлайн бесплатно в хорошем качестве


    Вы не можете начинать темы
    Вы не можете отвечать на сообщения
    Вы не можете редактировать свои сообщения
    Вы не можете удалять свои сообщения
    Вы не можете голосовать в опросах
    Вы не можете прикреплять файлы к сообщениям
    Вы можете скачивать файлы