1 сезон

3 сезон

iTunes

1

iTunes

MVO

iTunes

13

1 сезон

RePack

30

Deluxe

pack

Лицензия

ВАЖНО

ИГРА 18+

pack

RePack

MK11

RePack

jed

RePack

fifa19

RePack

RDR2

RePack

NEED FOR SPEED™ PAYBACK

4 сезон

9 сезон

Бесстыжие 9 сезон

Все сериалы

все сериалы на PB.wtf

RePack

FAR CRY 5

Anonymous, добрый вечер, мы катастрофически не успеваем собрать деньги на оплату серверов, помогите нам пожалуйста 5,10,15р., для нас важна любая помощь . В качестве благодарности мы отключим Вам всю рекламу на сайте (укажите свой ник в строку Ваше имя)!

×
  
Magnet ссылка

Москва 2017 / Branded (Джейми Брэдшоу, Александр Дулерайн / Jamie Bradshaw, Aleksandr Dulerayn) [2012, фантастика, триллер, DVD9] R5 pb.wtf

Москва 2017 через торрент pb.wtf

Размер: 7.42 GB | Добавлен: 8 лет 9 мес. назад | Торрент скачан:164 раза
Скачать  

12-10-2012 21:43 Москва 2017 Скачать торрент  


Москва 2017 / Branded
«Город будет захвачен»
Страна: США
Студия: Mirumir, ТНТ
Жанр: фантастика, триллер
Год выпуска: 2012
Мировая премьера: 7 сентября 2012
Российская премьера: 7 сентября 2012
Дата выхода DVD: 16 октября 2012
Дата выхода Blu-Ray: 16 октября 2012
Продолжительность: 01:42:08
Перевод: Профессиональный (дублированный) [Лицензия]
Cубтитры: русские
Оригинальная аудиодорожка: английский
Режиссер: Джейми Брэдшоу, Александр Дулерайн / Jamie Bradshaw, Aleksandr Dulerayn
В ролях: Эд Стоппард, Джефри Тэмбор, Лили Собески, Джон Ласковски, Макс фон Сюдов, Ингеборга Дапкунайте, Андрей Кайков, Атанас Сребрев, Эмма Стикгольд, Любомир Йончев
Описание: Действие происходит в недалеком будущем. Главный герой, Михаил Галкин, замечает, как вокруг накапливаются перемены… Происходят события, казалось бы, не связанные между собой… Он обнаруживает глобальный заговор и понимает, что за этим заговором стоят скрытые силы, контролирующие наш мир. И эти силы не принадлежат человеческой цивилизации. Герой начинает против них войну. Войну, которую нельзя проиграть.
Бонусы: нет

Релиз группы:
Качество: DVD9 R5
Формат: DVD-Video
Видео кодек: MPEG2
Аудио кодек: AC3
Видео: PAL 16:9 (720x576(0.745)) MPEG Video, 25,000 кадр/сек, 7723 Кбит/сек
Аудио #1: Russian (Dolby AC3, 2 ch) 192 Кбит/сек, 48,0 КГц
Аудио #2: Russian (Dolby AC3, 6 ch) 448 Кбит/сек, 48,0 КГц
Аудио #3: English (Dolby AC3, 2 ch) 192 Кбит/сек, 48,0 КГц
Аудио #4: English (Dolby AC3, 6 ch) 448 Кбит/сек, 48,0 КГц



Title: Moskva.2017.2012.DVD9
Size: 7.42 Gb ( 7 784 692,00 KBytes ) - DVD-9
Enabled regions: 1, 2, 3, 4, 5, 6, 7, 8

VTS_01 :
Play Length: 01:42:08
Video: PAL 16:9 (720x576) VBR, Auto Letterboxed
Audio:
Russian (Dolby AC3, 2 ch)
Russian (Dolby AC3, 6 ch)
English (Dolby AC3, 2 ch)
English (Dolby AC3, 6 ch)
Subtitles:
Russian

* Menus Information *

VIDEO_TS Menu
Video:
PAL 16:9 (720x576) VBR
Auto Letterboxed
Audio:
Not specified (Dolby AC3, 2 ch)
Russian Language Unit :
Title Menu

VTS_01 Menu
Video:
PAL 16:9 (720x576) VBR
Auto Letterboxed
Audio:
Not specified (Dolby AC3, 2 ch)
Russian Language Unit :
Root Menu
Общее
Полное имя : J:Новинки 2012Moskva.2017.2012.DVD9VIDEO_TSVTS_01_4.VOB
Формат : MPEG-PS
Размер файла : 1024 Мбайт
Продолжительность : 15 м.
Режим общего битрейта : Переменный
Общий поток : 9186 Кбит/сек

Видео
Идентификатор : 224 (0xE0)
Формат : MPEG Video
Версия формата : Version 2
Профиль формата : Main@Main
Параметр BVOP формата : Да
Параметр матрицы формата : Выборочная
Продолжительность : 15 м.
Вид битрейта : Переменный
Битрейт : 7723 Кбит/сек
Максимальный битрейт : 8200 Кбит/сек
Ширина : 720 пикселей
Высота : 576 пикселей
Соотношение сторон : 16:9
Частота кадров : 25,000 кадров/сек
Стандарт вещания : PAL
Цветовое пространство : YUV
Субдискретизация насыщенности : 4:2:0
Битовая глубина : 8 бит
Тип развёртки : Чересстрочная
Порядок развёртки : Верхнее поле первое
Метод сжатия : С потерями
Бит/(Пиксели*Кадры) : 0.745
Размер потока : 861 Мбайт (84%)

Аудио #1
Идентификатор : 189 (0xBD)-128 (0x80)
Формат : AC-3
Формат/Информация : Audio Coding 3
Расширение режима : CM (complete main)
Параметр Endianness формата : Big
Режим смешивания : DVD-Video
Продолжительность : 15 м.
Вид битрейта : Постоянный
Битрейт : 192 Кбит/сек
Каналы : 2 канала
Расположение каналов : Front: L R
Частота : 48,0 КГц
Битовая глубина : 16 бит
Метод сжатия : С потерями
Задержка видео : -432 мс.
Размер потока : 21,4 Мбайт (2%)

Аудио #2
Идентификатор : 189 (0xBD)-129 (0x81)
Формат : AC-3
Формат/Информация : Audio Coding 3
Расширение режима : CM (complete main)
Параметр Endianness формата : Big
Режим смешивания : DVD-Video
Продолжительность : 15 м.
Вид битрейта : Постоянный
Битрейт : 448 Кбит/сек
Каналы : 6 каналов
Расположение каналов : Front: L C R, Side: L R, LFE
Частота : 48,0 КГц
Битовая глубина : 16 бит
Метод сжатия : С потерями
Задержка видео : -432 мс.
Размер потока : 49,9 Мбайт (5%)

Аудио #3
Идентификатор : 189 (0xBD)-130 (0x82)
Формат : AC-3
Формат/Информация : Audio Coding 3
Расширение режима : CM (complete main)
Параметр Endianness формата : Big
Режим смешивания : DVD-Video
Продолжительность : 15 м.
Вид битрейта : Постоянный
Битрейт : 192 Кбит/сек
Каналы : 2 канала
Расположение каналов : Front: L R
Частота : 48,0 КГц
Битовая глубина : 16 бит
Метод сжатия : С потерями
Задержка видео : -432 мс.
Размер потока : 21,4 Мбайт (2%)

Аудио #4
Идентификатор : 189 (0xBD)-131 (0x83)
Формат : AC-3
Формат/Информация : Audio Coding 3
Расширение режима : CM (complete main)
Параметр Endianness формата : Big
Режим смешивания : DVD-Video
Продолжительность : 15 м.
Вид битрейта : Постоянный
Битрейт : 448 Кбит/сек
Каналы : 6 каналов
Расположение каналов : Front: L C R, Side: L R, LFE
Частота : 48,0 КГц
Битовая глубина : 16 бит
Метод сжатия : С потерями
Задержка видео : -432 мс.
Размер потока : 49,9 Мбайт (5%)

Текст
Идентификатор : 189 (0xBD)-32 (0x20)
Формат : RLE
Формат/Информация : Run-length encoding
Режим смешивания : DVD-Video
Продолжительность : 15 м.
Задержка видео : -40 мс.










pb.wtf



Скачать Москва 2017 через торрент http://i45.fastpic.ru/big/2012/1012/5a/3fbc42a183e37b6321d1a45f76dc645a.jpg Скачать фильм Москва 2017 через торрент бесплантно в хорошем качестве Описание: Действие происходит в недалеком будущем. Главный герой, Михаил Галкин, замечает, как вокруг накапливаются перемены… Происходят ... 5 10 1
Info! Золотая раздача, скачанное не засчитывается.
Торрент: Зарегистрирован [2012-10-12 21:43] · скачан: 164 раз
Статус: √ проверено
Размер: 7.42 GB
Как cкачать? Как скачать Москва 2017 через торрент | UTorrent

% Раздел Тема Автор DL S | L
Фильмы 2012 [ 2.18 GB ] Москва 2017 / Branded [2012 HDRip-AVC] [ лицензия ] от R.G. B-kpo V@DILA Скачать
1 | 0

28-11-2019 20:33  

Отключить всю рекламу на сайте

13-10-2012 04:36 Москва 2017 Скачать торрент  

Как фильм ?народ кто смотрел отпишитесь.pb.wtf



13-10-2012 05:29 Москва 2017 Скачать торрент  

CFCm1xer писал(а):

Как фильм ?народ кто смотрел отпишитесь.

Бред полнейший. Хуже еще не видел.pb.wtf



19-10-2012 01:16 Москва 2017 Скачать торрент  

Просто наиполнейший бред, фильм про рекламу и про то как америкосы осваивали советский маркетинг...pb.wtf



    Дорогой пользователь! Огромная просьба, поблагодарите релизера, оцените раздачу и оставьте свои комментарий, если Вы скачали Москва 2017 через торрент бесплатно! Внесите свою лепту в развитие PiratBit!
    Комментировать посты могут только пользователи прошедшие не сложную регистрацию
    Показать сообщения:    

    Москва 2017 через торрент
    Скачать бесплатно Москва 2017
    Москва 2017 скачать торрент
    Москва 2017 смотреть онлайн
    Cкачать фильм Москва 2017 бесплатно
    Москва 2017 скачать торрент в хорошем качестве
    Москва 2017 смотреть онлайн бесплатно в хорошем качестве


    Вы не можете начинать темы
    Вы не можете отвечать на сообщения
    Вы не можете редактировать свои сообщения
    Вы не можете удалять свои сообщения
    Вы не можете голосовать в опросах
    Вы не можете прикреплять файлы к сообщениям
    Вы можете скачивать файлы