Ссылка на приватное зеркало нашего сайта всего за 1$. Внимание количество ограничено!!!

2 сезон

iTunes

1 сезон

1

2 сезон

2 сезон

iTunes

1 сезон

RePack

30

Ultimate

ВАЖНО

ИГРА 18+

pack

RePack

MK11
pack

Забери бонус

RePack

jed

!!Акция!!

Alien_Rage

RePack

fifa19

RePack

Assassins Creed: Odyssey

RePack

NEED FOR SPEED™ PAYBACK

4 сезон

9 сезон

Бесстыжие 9 сезон

Все сериалы

все сериалы на PB.wtf

RePack

FAR CRY 5
  

Президент Линкольн: Охотник на вампиров / Abraham Lincoln: Vampire Hunter (Тимур Бекмамбетов) [2012 г., ужасы, фэнтези, боевик, триллер, BD-Remux, DUB, лицензия] pb.wtf

Президент Линкольн: Охотник на вампиров через торрент pb.wtf

Размер: 20.29 GB | Добавлен: 8 лет 1 мес. назад | Торрент скачан:274 раза
Скачать  

13-10-2012 01:22 Президент Линкольн: Охотник на вампиров Скачать торрент  

Президент Линкольн: Охотник на вампиров / Abraham Lincoln: Vampire Hunter

Год выпуска: 2012
Страна: США
Жанр: ужасы, фэнтези, боевик, триллер
Продолжительность: 01:45:00
Перевод: Дубляж, Лицензия

Режиссер: Тимур Бекмамбетов
Продюссер: Тимур Бекмамбетов, Тим Бёртон, Джим Лемли
Сценарий: Сет Грэм-Смит

В ролях: Бенджамин Уокер, Доминик Купер, Энтони Маки, Мэри Элизабет Уинстэд, Руфус Сьюэлл, Мартон Чокаш, Джимми Симпсон, Джозеф Моул, Робин МакЛиви, Эрин Уоссон, Иван Жарков, Пётр Иващенко, Рамиля Искандер, Виктор Вержбицкий, Илья Хвостиков

Описание: Сюжет фильма раскрывает тайную жизнь Величайшего Президента Америки Авраама Линкольна — любящего мужа и отца днем и беспощадного убийцу вампиров ночью. Армия кровопийц, которым он бросил вызов, растет с каждым днем. Сможет ли президент великой страны противостоять полчищам вампиров и спасти свою семью и народ от неминуемой гибели?..

Качество: BD-Remux
Формат: MKV
Видео кодек: AVC
Аудио кодек: DTS
Видео: AVC, 25,9 Mbps, 1920x1080, 23.976 fps
Аудио#1: DTS, 755 Kbps, 6 channels, 48.0 KHz[Rus]
Аудио#2: AC3, 448 Kbps, 6 channels, 48.0 KHz[Eng Отдельно]
Общее
Уникальный идентификатор : 226534202929023083504420481290245758774 (0xAA6CE6862D8130B78030B68C0D8BDF36)
Полное имя : D:xxxAbraham LincolnAbraham Lincoln.mkv
Формат : Matroska
Версия формата : Version 2
Размер файла : 20,0 Гбайт
Продолжительность : 1 ч. 45 м.
Режим общего битрейта : Переменный
Общий поток : 27,2 Мбит/сек
Дата кодирования : UTC 2012-10-13 00:32:43
Программа кодирования : mkvmerge v5.8.0 ('No Sleep / Pillow') built on Sep 2 2012 15:37:04
Библиотека кодирования : libebml v1.2.3 + libmatroska v1.3.0

Видео
Идентификатор : 1
Формат : AVC
Формат/Информация : Advanced Video Codec
Профиль формата : High@L4.1
Параметр CABAC формата : Да
Параметр ReFrames формата : 4 кадра
Идентификатор кодека : V_MPEG4/ISO/AVC
Продолжительность : 1 ч. 45 м.
Вид битрейта : Переменный
Битрейт : 25,9 Мбит/сек
Максимальный битрейт : 30,0 Мбит/сек
Ширина : 1920 пикселей
Высота : 1080 пикселей
Соотношение сторон : 16:9
Режим частоты кадров : Постоянный
Частота кадров : 23,976 кадра/сек
Цветовое пространство : YUV
Субдискретизация насыщенности : 4:2:0
Битовая глубина : 8 бит
Тип развёртки : Прогрессивная
Бит/(Пиксели*Кадры) : 0.521
Размер потока : 19,0 Гбайт (95%)
Default : Да
Forced : Нет

Аудио
Идентификатор : 2
Формат : DTS
Формат/Информация : Digital Theater Systems
Идентификатор кодека : A_DTS
Продолжительность : 1 ч. 45 м.
Вид битрейта : Постоянный
Битрейт : 755 Кбит/сек
Каналы : 6 каналов
Расположение каналов : Front: L C R, Side: L R, LFE
Частота : 48,0 КГц
Битовая глубина : 24 бит
Метод сжатия : С потерями
Размер потока : 567 Мбайт (3%)
Default : Да
Forced : Нет

Текст #1
Идентификатор : 3
Формат : PGS
Режим смешивания : zlib
Идентификатор кодека : S_HDMV/PGS
Идентификатор кодека/Информация : The same subtitle format used on BDs/HD-DVDs
Default : Да
Forced : Нет

Текст #2
Идентификатор : 4
Формат : PGS
Режим смешивания : zlib
Идентификатор кодека : S_HDMV/PGS
Идентификатор кодека/Информация : The same subtitle format used on BDs/HD-DVDs
Default : Нет
Forced : Нет

pb.wtf



Скачать Президент Линкольн: Охотник на вампиров через торрент http://pic.kartinco.top/images/1/8aloftjs64.png Скачать фильм Президент Линкольн: Охотник на вампиров через торрент бесплантно в хорошем качестве Описание: Сюжет фильма раскрывает тайную жизнь Величайшего Президента Америки Авраама Линкольна — любящего мужа и отца днем и беспощадного ... 10 10 1
Info! Золотая раздача, скачанное не засчитывается.
Торрент: Зарегистрирован [2012-10-13 01:22] · скачан: 274 раз
Статус: √ проверено
Размер: 20.29 GB
Как cкачать? Как скачать Президент Линкольн: Охотник на вампиров через торрент | qTorrent

% Раздел Тема Автор DL S | L
3D Фильмы [ 11.5 GB ] Президент Линкольн: Охотник на вампиров / Abraham Lincoln: Vampire Hunter [2012 BDRip 1080p лицензия] Half OverUnder / Вертикальная анаморфная стереопара Ke$h@ Скачать
1 | 0
Фильмы 2012 [ 1.46 GB ] Президент Линкольн: Охотник на вампиров / Abraham Lincoln: Vampire Hunter [2012 DVDRip DUB лицензия] AGKRus36 Скачать
1 | 0
Фильмы 2012 [ 2.18 GB ] Президент Линкольн: Охотник на вампиров / Abraham Lincoln: Vampire Hunter [2012 HDRip-AVC DUB лицензия] Seedtank Скачать
1 | 0
Фильмы (DVD фильмы) [ 6.59 GB ] Президент Линкольн: Охотник на вампиров / Abraham Lincoln: Vampire Hunter [2012 DVD9] R5 voovaz Скачать
1 | 0
Фильмы 2012 [ 1.46 GB ] Президент Линкольн: Охотник на вампиров / Abraham Lincoln: Vampire Hunter [2012 HDRip DUB лицензия] AGKRus36 Скачать
1 | 0
Фильмы 2012 [ 1.46 GB ] Президент Линкольн: Охотник на вампиров / Abraham Lincoln: Vampire Hunter [2012 BDRip-AVC DUB лицензия] potroks Скачать
1 | 0
3D Фильмы [ 21.53 GB ] Президент Линкольн: Охотник на вампиров / Abraham Lincoln: Vampire Hunter [2012 BDRip 1080p DUB лицензия] Вертикальная стереопара serega768 Скачать
1 | 0

28-11-2019 20:33  

Отключить всю рекламу на сайте

13-10-2012 09:32 Президент Линкольн: Охотник на вампиров Скачать торрент  

надеюсь до вечера скачается ))pb.wtf



14-10-2012 09:00 Президент Линкольн: Охотник на вампиров Скачать торрент  

кому нибудь три дэ нужно?pb.wtf



09-11-2012 17:08 Президент Линкольн: Охотник на вампиров Скачать торрент  

Это просто пи..дец. Каким надо быть дебилом, чтобы такое снять. Нет слов выразить все негативные мысли по этому фильму...pb.wtf



09-11-2012 21:26 Президент Линкольн: Охотник на вампиров Скачать торрент  

Посмотрел,ожидал лучшего.pb.wtf



    Дорогой пользователь! Огромная просьба, поблагодарите релизера, оцените раздачу и оставьте свои комментарий, если Вы скачали Президент Линкольн: Охотник на вампиров через торрент бесплатно! Внесите свою лепту в развитие PiratBit!
    Комментировать посты могут только пользователи прошедшие не сложную регистрацию
    Показать сообщения:    

    Президент Линкольн: Охотник на вампиров через торрент
    Скачать бесплатно Президент Линкольн: Охотник на вампиров
    Президент Линкольн: Охотник на вампиров скачать торрент
    Президент Линкольн: Охотник на вампиров смотреть онлайн
    Cкачать фильм Президент Линкольн: Охотник на вампиров бесплатно
    Президент Линкольн: Охотник на вампиров скачать торрент в хорошем качестве
    Президент Линкольн: Охотник на вампиров смотреть онлайн бесплатно в хорошем качестве


    Вы не можете начинать темы
    Вы не можете отвечать на сообщения
    Вы не можете редактировать свои сообщения
    Вы не можете удалять свои сообщения
    Вы не можете голосовать в опросах
    Вы не можете прикреплять файлы к сообщениям
    Вы можете скачивать файлы