новый адрес
Ссылка на приватное зеркало всего за 1$. Внимание количество ограничено!!!

iTunes

1+1

iTunes

мы

WEB-DL

1

iTunes

Чернобыль

iTunes

Ральф против интернета

Лицензия

ПШазам

Лицензия

Оно 2

Лицензия

30
pack

Вам бонус

ВАЖНО

!!Акция!!

Alien_RageХит недели

RePack

Resident Evil 21

ИГРА 18+

pack

RePack

jed

!!Акция!!

Alien_Rage

RePack

fifa19

RePack

Assassins Creed: Odyssey

RePack

NEED FOR SPEED™ PAYBACK

3 сезон

9 сезон

Бесстыжие 9 сезон

Все сериалы

все сериалы на PB.wtf

RePack

FAR CRY 5
Ребята, катастрофически не хватает 1900р. для оплаты серверов за Октябрь (всвязи с блокировками трафик упал в 3 раза), 1-2р., выручайте.
  

Рай: Любовь / Paradies: Liebe (Ульрих Зайдль) [2012 г., драма, DVDRip, MVO, лицензия] pb.wtf

Рай: Любовь через торрент pb.wtf

Размер: 1.46 GB | Добавлен: 7 лет 1 мес. назад | Торрент скачан:209 раз
Скачать  

13-10-2012 04:16 Рай: Любовь Скачать торрент  

Рай: Любовь / Paradies: Liebe

Год выпуска: 2012
Страна: Австрия, Германия, Франция
Жанр: драма
Продолжительность: 02:00:41
Перевод: Профессиональный многоголосый, Лицензия

Режиссер: Ульрих Зайдль
Продюссер: Филипп Бобер, Кристин Рупперт, Ульрих Зайдл
Сценарий: Ульрих Зайдль, Вероника Франц

Бюджет: €3 600 000
Премьера в мире: 18 мая 2012




В ролях: Маргарет Тизель, Питер Казунгу, Инге Маукс, Дуня Совинец, Хелен Бругат, Габриель Мваруа, Карлос Мкутано

Описание: Если даме слегка за пятьдесят, означает ли, что её сексуальная жизнь закончилась?! В строгой, флегматичной Австрии, откуда родом наша героиня Тереза, — вполне вероятно. Но в жаркой, чувственной Кении, куда она собралась в отпуск, секс только начинается! Ведь здесь к услугам любой белой женщины десятки черных жрецов любви с белозубой улыбкой и отменной эрекцией. Проблема «активного» отдыха для дам пост-бальзаковского возраста лишь в одном: вулкан доступной эротики детонирует невостребованный запас нежных чувств, которые безжалостно разбиваются о неприступную меркантильность местных альфонсов.

Качество: DVDRip
Формат: AVI
Видео кодек: XviD
Аудио кодек: AC3
Видео: XviD, 720х384, 1269 kb/s, 23.976 fps
Аудио#1: 48 kHz, AC3 Dolby Digital, 2/0 (L,R) ch, ~448 kbps

General
Complete name Raj.Lyubov.2012.P.DVDRip.avi
Format : AVI
Format/Info : Audio Video Interleave
File size : 1.46 GiB
Duration : 2h 0mn
Overall bit rate : 1 727 Kbps
Writing application : VirtualDubModRus 1.5.10.2 (build 2542/release)
Writing library : VirtualDubMod build 2542/release

Video
ID : 0
Format : MPEG-4 Visual
Format profile : Advanced Simple@L5
Format settings, BVOP : 2
Format settings, QPel : No
Format settings, GMC : No warppoints
Format settings, Matrix : Custom
Codec ID : XVID
Codec ID/Hint : XviD
Duration : 2h 0mn
Bit rate : 1 270 Kbps
Width : 720 pixels
Height : 384 pixels
Display aspect ratio : 1.875
Frame rate : 23.976 fps
Color space : YUV
Chroma subsampling : 4:2:0
Bit depth : 8 bits
Scan type : Progressive
Compression mode : Lossy
Bits/(Pixel*Frame) : 0.192
Stream size : 1.07 GiB (74%)
Writing library : XviD 1.2.1 (UTC 2008-12-04)

Audio
ID : 1
Format : AC-3
Format/Info : Audio Coding 3
Mode extension : CM (complete main)
Codec ID : 2000
Duration : 2h 0mn
Bit rate mode : Constant
Bit rate : 448 Kbps
Channel(s) : 2 channels
Channel positions : Front: L R
Sampling rate : 48.0 KHz
Bit depth : 16 bits
Compression mode : Lossy
Stream size : 387 MiB (26%)
Alignment : Split accross interleaves
Interleave, duration : 42 ms (1.00 video frame)
Interleave, preload duration : 500 ms

pb.wtf



Скачать Рай: Любовь через торрент http://pic.kartinco.top/images/1/dluua9mcue.jpg Скачать фильм Рай: Любовь через торрент бесплантно в хорошем качестве Описание: Если даме слегка за пятьдесят, означает ли, что её сексуальная жизнь закончилась?! В строгой, флегматичной Австрии, откуда родом ... 10 10 1
Info! Золотая раздача, скачанное не засчитывается.
Торрент: Зарегистрирован [2012-10-13 04:16] · скачан: 209 раз
Статус: √ проверено
Размер: 1.46 GB
Как cкачать? Как скачать Рай: Любовь через торрент | qTorrent

28-11-2019 20:33  

Отключить всю рекламу на сайте

    Дорогой пользователь! Огромная просьба, поблагодарите релизера, оцените раздачу и оставьте свои комментарий, если Вы скачали Рай: Любовь через торрент бесплатно! Внесите свою лепту в развитие PiratBit!
    Комментировать посты могут только пользователи прошедшие не сложную регистрацию
    Показать сообщения:    

    Рай: Любовь через торрент
    Скачать бесплатно Рай: Любовь
    Рай: Любовь скачать торрент
    Рай: Любовь смотреть онлайн
    Cкачать фильм Рай: Любовь бесплатно
    Рай: Любовь скачать торрент в хорошем качестве
    Рай: Любовь смотреть онлайн бесплатно в хорошем качестве


    Вы не можете начинать темы
    Вы не можете отвечать на сообщения
    Вы не можете редактировать свои сообщения
    Вы не можете удалять свои сообщения
    Вы не можете голосовать в опросах
    Вы не можете прикреплять файлы к сообщениям
    Вы можете скачивать файлы