Ссылка на приватное зеркало нашего сайта всего за 1$. Внимание количество ограничено!!!

2 сезон

iTunes

1 сезон

1

iTunes

iTunes

iTunes

1 сезон

RePack

30

ИГРА 18+

pack

ВАЖНО

!!Акция!!

Alien_RageХит недели

RePack

MK11
pack

Забери бонус

RePack

jed

!!Акция!!

Alien_Rage

RePack

fifa19

RePack

Assassins Creed: Odyssey

RePack

NEED FOR SPEED™ PAYBACK

4 сезон

9 сезон

Бесстыжие 9 сезон

Все сериалы

все сериалы на PB.wtf

RePack

FAR CRY 5
  

Президент Линкольн: Охотник на вампиров / Abraham Lincoln: Vampire Hunter (Тимур Бекмамбетов) [2012 г., ужасы, фэнтези, боевик, триллер, BDRip 720p, DUB, лицензия] pb.wtf

Президент Линкольн: Охотник на вампиров через торрент pb.wtf

Размер: 5.28 GB | Добавлен: 8 лет назад | Торрент скачан:648 раз
Скачать  

13-10-2012 12:09 Президент Линкольн: Охотник на вампиров Скачать торрент  

Президент Линкольн: Охотник на вампиров / Abraham Lincoln: Vampire HunterГод выпуска: 2012
Страна: США, Abraham Productions / Базелевс Продакшн / Tim Burton Productions
Жанр: ужасы, фэнтези, боевик, триллер
Продолжительность: 01:45:00
Перевод: Дубляж, Лицензия+Оригинал
Тип релиза: Лицензия

Режиссер: Тимур Бекмамбетов

В ролях: Бенджамин Уокер, Доминик Купер, Энтони Маки, Мэри Элизабет Уинстэд, Руфус Сьюэлл, Мартон Чокаш, Джимми Симпсон, Джозеф Моул, Робин МакЛиви, Эрин Уоссон, Джон Ротмен, Камерон М. Браун, Фрэнк Бреннан, Люкс Хэйни-Джардин, Кертис Харрис мл., Б. Мартин Уильямс, Алекс Ломбард, Рэвин Стинсон, Жаклин Флеминг, Джон Нейслер, Аарон Тони, Миде Паттон, Тери Уайбл, Лоуренс Тернер, Джэйк Ла Ботц, Дэйн Род

Описание: Сюжет фильма раскрывает тайную жизнь Величайшего Президента Америки Авраама Линкольна — любящего мужа и отца днем и беспощадного убийцу вампиров ночью. Армия кровопийц, которым он бросил вызов, растет с каждым днем. Сможет ли президент великой страны противостоять полчищам вампиров и спасти свою семью и народ от неминуемой гибели?..

Субтитры: Russian, Ukrainian, English

Качество: BDRip 720p
Формат: MKV
Видео кодек: MPEG-4 AVC/H.264
Аудио кодек: DTS
Видео: AVC, 1280x534 (2.35:1), 23.976 fps, 4 791 Kbps
Аудио#1: DTS, 48.0 KHz, 6 ch, 755 Kbps, CBR (Russian)|Дубляж, Blu-ray CEE|
Аудио#2: DTS, 48.0 KHz, 6 ch, 1 510 Kbps, CBR (English)


General
Unique ID : 181453425495455920362433201754950416129 (0x8882A897DE6865BD8E009CDA314D3701)
Complete name : F:The Testament Of Sherlock Holmes.(2012).RepackPrezident.Linkoln.Ohotnik.na.vampirov.2012.BDRip.720p.mkv
Format : Matroska
Format version : Version 2
File size : 5.28 GiB
Duration : 1h 45mn
Overall bit rate : 7 198 Kbps
Encoded date : UTC 2012-10-13 08:44:26
Writing application : mkvmerge v5.8.0 ('No Sleep / Pillow') built on Sep 2 2012 15:37:04
Writing library : libebml v1.2.3 + libmatroska v1.3.0

Video
ID : 1
Format : AVC
Format/Info : Advanced Video Codec
Format profile : High@L4.1
Format settings, CABAC : Yes
Format settings, ReFrames : 12 frames
Codec ID : V_MPEG4/ISO/AVC
Duration : 1h 45mn
Bit rate : 4 791 Kbps
Width : 1 280 pixels
Height : 534 pixels
Display aspect ratio : 2.40:1
Frame rate mode : Constant
Frame rate : 23.976 fps
Color space : YUV
Chroma subsampling : 4:2:0
Bit depth : 8 bits
Scan type : Progressive
Bits/(Pixel*Frame) : 0.292
Stream size : 3.51 GiB (67%)
Title : Abraham Lincoln Vampire Hunter 2012 720p
Writing library : x264 core 128 r2216 198a7ea
Encoding settings : cabac=1 / ref=12 / deblock=1:-3:-3 / analyse=0x3:0x113 / me=umh / subme=11 / psy=1 / psy_rd=1.10:0.00 / mixed_ref=1 / me_range=32 / chroma_me=1 / trellis=2 / 8x8dct=1 / cqm=0 / deadzone=21,11 / fast_pskip=0 / chroma_qp_offset=-2 / threads=12 / lookahead_threads=2 / sliced_threads=0 / nr=0 / decimate=1 / interlaced=0 / bluray_compat=0 / constrained_intra=0 / bframes=9 / b_pyramid=2 / b_adapt=2 / b_bias=0 / direct=3 / weightb=1 / open_gop=0 / weightp=2 / keyint=250 / keyint_min=23 / scenecut=40 / intra_refresh=0 / rc_lookahead=40 / rc=crf / mbtree=0 / crf=17.0 / qcomp=0.60 / qpmin=10 / qpmax=69 / qpstep=4 / vbv_maxrate=50000 / vbv_bufsize=62500 / crf_max=0.0 / nal_hrd=none / ip_ratio=1.40 / pb_ratio=1.30 / aq=1:1.00
Language : English
Default : Yes
Forced : Yes
Matrix coefficients : BT.709

Audio #1
ID : 2
Format : DTS
Format/Info : Digital Theater Systems
Codec ID : A_DTS
Duration : 1h 45mn
Bit rate mode : Constant
Bit rate : 755 Kbps
Channel(s) : 6 channels
Channel positions : Front: L C R, Side: L R, LFE
Sampling rate : 48.0 KHz
Bit depth : 24 bits
Compression mode : Lossy
Stream size : 567 MiB (10%)
Title : DTS 5.1 @ 768 kbps - Dub, BD EUR
Language : Russian
Default : Yes
Forced : Yes

Audio #2
ID : 3
Format : DTS
Format/Info : Digital Theater Systems
Codec ID : A_DTS
Duration : 1h 45mn
Bit rate mode : Constant
Bit rate : 1 510 Kbps
Channel(s) : 6 channels
Channel positions : Front: L C R, Side: L R, LFE
Sampling rate : 48.0 KHz
Bit depth : 24 bits
Compression mode : Lossy
Stream size : 1.11 GiB (21%)
Title : DTS 5.1 @ 1536 kbps
Language : English
Default : No
Forced : No

Text #1
ID : 4
Format : UTF-8
Codec ID : S_TEXT/UTF8
Codec ID/Info : UTF-8 Plain Text
Title : Full
Language : Russian
Default : No
Forced : No

Text #2
ID : 5
Format : UTF-8
Codec ID : S_TEXT/UTF8
Codec ID/Info : UTF-8 Plain Text
Title : Full
Language : Ukrainian
Default : No
Forced : No

Text #3
ID : 6
Format : UTF-8
Codec ID : S_TEXT/UTF8
Codec ID/Info : UTF-8 Plain Text
Title : Full
Language : English
Default : No
Forced : No

Menu
00:00:00.000 : en:00:00:00.000
00:03:48.478 : en:00:03:48.478
00:06:52.578 : en:00:06:52.578
00:11:06.457 : en:00:11:06.457
00:15:10.534 : en:00:15:10.534
00:20:07.789 : en:00:20:07.789
00:26:46.354 : en:00:26:46.354
00:29:22.135 : en:00:29:22.135
00:34:13.009 : en:00:34:13.009
00:39:04.884 : en:00:39:04.884
00:42:42.810 : en:00:42:42.810
00:47:25.467 : en:00:47:25.467
00:52:50.917 : en:00:52:50.917
01:00:39.302 : en:01:00:39.302
01:05:16.621 : en:01:05:16.621
01:10:33.562 : en:01:10:33.562
01:13:21.939 : en:01:13:21.939
01:16:41.555 : en:01:16:41.555
01:18:46.972 : en:01:18:46.972
01:22:41.373 : en:01:22:41.373
01:25:28.123 : en:01:25:28.123
01:29:00.835 : en:01:29:00.835
01:32:23.496 : en:01:32:23.496
01:37:55.119 : en:01:37:55.119

pb.wtf



Скачать Президент Линкольн: Охотник на вампиров через торрент http://i44.fastpic.ru/big/2012/1013/64/bb33933522f3b1efefb8e35aa5c6ff64.png Скачать фильм Президент Линкольн: Охотник на вампиров через торрент бесплантно в хорошем качестве Описание: Сюжет фильма раскрывает тайную жизнь Величайшего Президента Америки Авраама Линкольна — любящего мужа и отца днем и беспощадного ... 10 10 7
Info! Золотая раздача, скачанное не засчитывается.
Торрент: Зарегистрирован [2012-10-13 12:09] · скачан: 648 раз
Статус: √ проверено
Размер: 5.28 GB
Как cкачать? Как скачать Президент Линкольн: Охотник на вампиров через торрент | qTorrent

% Раздел Тема Автор DL S | L
3D Фильмы [ 11.5 GB ] Президент Линкольн: Охотник на вампиров / Abraham Lincoln: Vampire Hunter [2012 BDRip 1080p лицензия] Half OverUnder / Вертикальная анаморфная стереопара Ke$h@ Скачать
1 | 0
Фильмы 2012 [ 1.46 GB ] Президент Линкольн: Охотник на вампиров / Abraham Lincoln: Vampire Hunter [2012 DVDRip DUB лицензия] AGKRus36 Скачать
1 | 0
Фильмы 2012 [ 2.18 GB ] Президент Линкольн: Охотник на вампиров / Abraham Lincoln: Vampire Hunter [2012 HDRip-AVC DUB лицензия] Seedtank Скачать
1 | 0
Фильмы (Blu-ray, BD-Remux, HDDVD) [ 20.29 GB ] Президент Линкольн: Охотник на вампиров / Abraham Lincoln: Vampire Hunter [2012 BD-Remux DUB лицензия] Userman4ik Скачать
1 | 0
Фильмы (DVD фильмы) [ 6.59 GB ] Президент Линкольн: Охотник на вампиров / Abraham Lincoln: Vampire Hunter [2012 DVD9] R5 voovaz Скачать
1 | 0
Фильмы 2012 [ 1.46 GB ] Президент Линкольн: Охотник на вампиров / Abraham Lincoln: Vampire Hunter [2012 HDRip DUB лицензия] AGKRus36 Скачать
1 | 0
Фильмы 2012 [ 1.46 GB ] Президент Линкольн: Охотник на вампиров / Abraham Lincoln: Vampire Hunter [2012 BDRip-AVC DUB лицензия] potroks Скачать
1 | 0

28-11-2019 20:33  

Отключить всю рекламу на сайте

13-10-2012 12:27 Президент Линкольн: Охотник на вампиров Скачать торрент  

Посмотрим что за ерунденьpb.wtf



13-10-2012 12:39 Президент Линкольн: Охотник на вампиров Скачать торрент  

PrinceXOXOL писал(а):

Посмотрим что за ерундень

Да норм фильм не гони !pb.wtf



13-10-2012 14:04 Президент Линкольн: Охотник на вампиров Скачать торрент  

главное не смотреть, что Бекмамбетов..так фильм для разового просмотра вполне подходит..7/10pb.wtf



    Дорогой пользователь! Огромная просьба, поблагодарите релизера, оцените раздачу и оставьте свои комментарий, если Вы скачали Президент Линкольн: Охотник на вампиров через торрент бесплатно! Внесите свою лепту в развитие PiratBit!
    Комментировать посты могут только пользователи прошедшие не сложную регистрацию
    Показать сообщения:    

    Президент Линкольн: Охотник на вампиров через торрент
    Скачать бесплатно Президент Линкольн: Охотник на вампиров
    Президент Линкольн: Охотник на вампиров скачать торрент
    Президент Линкольн: Охотник на вампиров смотреть онлайн
    Cкачать фильм Президент Линкольн: Охотник на вампиров бесплатно
    Президент Линкольн: Охотник на вампиров скачать торрент в хорошем качестве
    Президент Линкольн: Охотник на вампиров смотреть онлайн бесплатно в хорошем качестве


    Вы не можете начинать темы
    Вы не можете отвечать на сообщения
    Вы не можете редактировать свои сообщения
    Вы не можете удалять свои сообщения
    Вы не можете голосовать в опросах
    Вы не можете прикреплять файлы к сообщениям
    Вы можете скачивать файлы