Ссылка на приватное зеркало всего за 1$. Внимание количество ограничено!!!

iTunes

iTunes

iTunes

1

iTunes

iTunes

iTunes

iTunes

iTunes

30
pack

$ от Little Big

ВАЖНО

!!Акция!!

Alien_RageХит недели

RePack

Resident Evil 21

ИГРА 18+

pack

RePack

jed

!!Акция!!

Alien_Rage

RePack

fifa19

RePack

Assassins Creed: Odyssey

RePack

NEED FOR SPEED™ PAYBACK

4 сезон

9 сезон

Бесстыжие 9 сезон

Все сериалы

все сериалы на PB.wtf

RePack

FAR CRY 5
  

Поворот / U Turn (Оливер Стоун) [1997 г., триллер, драма, комедия, криминал, HDTV, DUB] pb.wtf

Поворот через торрент pb.wtf

Размер: 8.03 GB | Добавлен: 7 лет 8 мес. назад | Торрент скачан:25 раз
Скачать  

13-10-2012 14:52 Поворот Скачать торрент  

Поворот / U Turn
Год выпуска: 1997
Страна: Франция
Жанр: триллер, драма, комедия, криминал
Продолжительность: 01:59:00
Перевод: Дубляж
Режиссер: Оливер Стоун
Продюссер: Дэн Халстед, Клэйтон Таунсенд, Билл Браун
Сценарий: Джон Ридли
Бюджет: $19 000 000
Премьера в мире: 27 августа 1997
MPAA лицам до 17 лет обязательно присутствие взрослого
Мировой рейтинг IMDB 6.70 (31 063)

В ролях: Шон Пенн, Дженнифер Лопез, Ник Нолти, Билли Боб Торнтон, Джон Войт, Хоакин Феникс, Пауэрс Бут, Абрахам Бенруби, Ричард Рутовски, Айда Линарес, Валерий Сторожик, Ольга Сирина, Владимир Еремин, Борис Быстров, Юрий Саранцев
Описание: Бобби Купер, мелкий картежник с полными карманами денег и огромными долгами в Лас-Вегасе, снова на пустынной дороге в погоне за своим счастьем. Поломка заставляет его свернуть в маленький город, где он встречает Грейс, коварную красотку, задумавшую убийство своего богатого мужа.Они оба стремятся выбраться из города. И если вы познакомитесь с его жителями, то поймете — почему...
Качество: HDTV
Формат: MKV
Видео кодек: H.264x
Аудио кодек: AC3
Видео: AVC at 8099 Кбит/сек : 1920 x 1040 (1.846)
Аудио#1: AC-3 at 256 Кбит/сек : 2 канала, 48,0 КГц : DUB R5
Аудио#2: AC-3 at 256 Кбит/сек : 2 канала, 48,0 КГц :MVO R5
Аудио#3: AC-3 at 256 Кбит/сек : 2 канала, 48,0 КГц : MVO Первый канал
Аудио#4: AC-3 at 256 Кбит/сек : 2 канала, 48,0 КГц : AVO Андрея Гаврилова
Аудио#5:AC-3 at 256 Кбит/сек : 2 канала, 48,0 КГц :AVO Юрия Живова
Аудио#6:AC-3 at 256 Кбит/сек : 2 канала, 48,0 КГц :AVO Александра Кашкина (VHS)
Общее
Уникальный идентификатор : 181882245366360377737359128144855112025 (0x88D53F0B92CA0E85825D19F037731959)
Полное имя : C:UsersСлавонDesktopНовая папкаU-Turn.(1997).HDTV.1080p.rus.mkv
Формат : Matroska
Версия формата : Version 2
Размер файла : 8,03 Гбайт
Продолжительность : 1 ч. 59 м.
Общий поток : 9638 Кбит/сек
Название фильма : U Turn (1997) -=- KINOHRONIKA.ru
Дата кодирования : UTC 2012-10-10 15:35:26
Программа кодирования : mkvmerge v5.8.0 ('No Sleep / Pillow') built on Sep 2 2012 15:37:04
Библиотека кодирования : libebml v1.2.3 + libmatroska v1.3.0
Attachment : Yes

Видео
Идентификатор : 1
Формат : AVC
Формат/Информация : Advanced Video Codec
Профиль формата : High@L4.0
Параметр CABAC формата : Да
Параметр ReFrames формата : 4 кадра
Идентификатор кодека : V_MPEG4/ISO/AVC
Битрейт : 8099 Кбит/сек
Ширина : 1920 пикселей
Высота : 1040 пикселей
Соотношение сторон : 1,85:1
Режим частоты кадров : Переменный
Цветовое пространство : YUV
Субдискретизация насыщенности : 4:2:0
Битовая глубина : 8 бит
Тип развёртки : Прогрессивная
Заголовок : U Turn (1997) -=- KINOHRONIKA.ru
Библиотека кодирования : x264 core 112
Настройки программы : cabac=1 / ref=3 / deblock=1:0:0 / analyse=0x3:0x113 / me=hex / subme=7 / psy=1 / psy_rd=1.00:0.00 / mixed_ref=1 / me_range=16 / chroma_me=1 / trellis=1 / 8x8dct=1 / cqm=0 / deadzone=21,11 / fast_pskip=1 / chroma_qp_offset=-2 / threads=6 / sliced_threads=0 / nr=0 / decimate=1 / interlaced=0 / constrained_intra=0 / bframes=3 / b_pyramid=2 / b_adapt=2 / b_bias=0 / direct=1 / weightb=1 / open_gop=0 / weightp=2 / keyint=250 / keyint_min=25 / scenecut=40 / intra_refresh=0 / rc_lookahead=50 / rc=2pass / mbtree=1 / bitrate=8099 / ratetol=1.0 / qcomp=0.60 / qpmin=3 / qpmax=51 / qpstep=4 / cplxblur=20.0 / qblur=0.5 / ip_ratio=1.40 / aq=1:1.00
Язык : English
Default : Да
Forced : Нет
Основные цвета : BT.709
Характеристики трансфера : BT.709
Коэффициенты матрицы : BT.709

Аудио #1
Идентификатор : 2
Формат : AC-3
Формат/Информация : Audio Coding 3
Расширение режима : CM (complete main)
Параметр Endianness формата : Big
Идентификатор кодека : A_AC3
Продолжительность : 1 ч. 59 м.
Вид битрейта : Постоянный
Битрейт : 256 Кбит/сек
Каналы : 2 канала
Расположение каналов : Front: L R
Частота : 48,0 КГц
Битовая глубина : 16 бит
Метод сжатия : С потерями
Размер потока : 219 Мбайт (3%)
Заголовок : DUB R5
Язык : Russian
Default : Да
Forced : Нет

Аудио #2
Идентификатор : 3
Формат : AC-3
Формат/Информация : Audio Coding 3
Расширение режима : CM (complete main)
Параметр Endianness формата : Big
Идентификатор кодека : A_AC3
Продолжительность : 1 ч. 59 м.
Вид битрейта : Постоянный
Битрейт : 256 Кбит/сек
Каналы : 2 канала
Расположение каналов : Front: L R
Частота : 48,0 КГц
Битовая глубина : 16 бит
Метод сжатия : С потерями
Размер потока : 219 Мбайт (3%)
Заголовок : MVO R5
Язык : Russian
Default : Нет
Forced : Нет

Аудио #3
Идентификатор : 4
Формат : AC-3
Формат/Информация : Audio Coding 3
Расширение режима : CM (complete main)
Параметр Endianness формата : Big
Идентификатор кодека : A_AC3
Продолжительность : 1 ч. 59 м.
Вид битрейта : Постоянный
Битрейт : 256 Кбит/сек
Каналы : 2 канала
Расположение каналов : Front: L R
Частота : 48,0 КГц
Битовая глубина : 16 бит
Метод сжатия : С потерями
Размер потока : 219 Мбайт (3%)
Заголовок : MVO Первый канал
Язык : Russian
Default : Нет
Forced : Нет

Аудио #4
Идентификатор : 5
Формат : AC-3
Формат/Информация : Audio Coding 3
Расширение режима : CM (complete main)
Параметр Endianness формата : Big
Идентификатор кодека : A_AC3
Продолжительность : 1 ч. 59 м.
Вид битрейта : Постоянный
Битрейт : 256 Кбит/сек
Каналы : 2 канала
Расположение каналов : Front: L R
Частота : 48,0 КГц
Битовая глубина : 16 бит
Метод сжатия : С потерями
Размер потока : 219 Мбайт (3%)
Заголовок : AVO Андрея Гаврилова
Язык : Russian
Default : Нет
Forced : Нет

Аудио #5
Идентификатор : 6
Формат : AC-3
Формат/Информация : Audio Coding 3
Расширение режима : CM (complete main)
Параметр Endianness формата : Big
Идентификатор кодека : A_AC3
Продолжительность : 1 ч. 59 м.
Вид битрейта : Постоянный
Битрейт : 256 Кбит/сек
Каналы : 2 канала
Расположение каналов : Front: L R
Частота : 48,0 КГц
Битовая глубина : 16 бит
Метод сжатия : С потерями
Размер потока : 219 Мбайт (3%)
Заголовок : AVO Юрия Живова
Язык : Russian
Default : Нет
Forced : Нет

Аудио #6
Идентификатор : 7
Формат : AC-3
Формат/Информация : Audio Coding 3
Расширение режима : CM (complete main)
Параметр Endianness формата : Big
Идентификатор кодека : A_AC3
Продолжительность : 1 ч. 59 м.
Вид битрейта : Постоянный
Битрейт : 256 Кбит/сек
Каналы : 2 канала
Расположение каналов : Front: L R
Частота : 48,0 КГц
Битовая глубина : 16 бит
Метод сжатия : С потерями
Размер потока : 219 Мбайт (3%)
Заголовок : AVO Александра Кашкина (VHS)
Язык : Russian
Default : Нет
Forced : Нет

Меню
00:00:00.000 : en:Chapter 1
00:09:02.879 : en:Chapter 2
00:10:48.959 : en:Chapter 3
00:14:04.719 : en:Chapter 4
00:17:36.799 : en:Chapter 5
00:19:45.919 : en:Chapter 6
00:21:18.079 : en:Chapter 7
00:24:59.839 : en:Chapter 8
00:28:14.639 : en:Chapter 9
00:34:21.839 : en:Chapter 10
00:41:17.039 : en:Chapter 11
00:46:08.799 : en:Chapter 12
00:58:25.999 : en:Chapter 13
01:00:33.119 : en:Chapter 14
01:03:23.039 : en:Chapter 15
01:07:24.879 : en:Chapter 16
01:11:44.079 : en:Chapter 17
01:13:45.999 : en:Chapter 18
01:21:16.719 : en:Chapter 19
01:22:52.719 : en:Chapter 20
01:24:09.999 : en:Chapter 21
01:27:15.759 : en:Chapter 22
01:31:33.919 : en:Chapter 23
01:33:52.639 : en:Chapter 24
01:38:48.799 : en:Chapter 25
01:45:11.759 : en:Chapter 26
01:50:34.799 : en:Chapter 27
01:54:02.159 : en:Chapter 28

pb.wtf



Скачать Поворот через торрент http://i45.fastpic.ru/big/2012/1013/33/13092486a16674de390da70ab86c2833.jpg Скачать фильм Поворот через торрент бесплантно в хорошем качестве Описание: Бобби Купер, мелкий картежник с полными карманами денег и огромными долгами в Лас-Вегасе, снова на пустынной дороге в погоне за ... 9 10 1
Info! Золотая раздача, скачанное не засчитывается.
Торрент: Зарегистрирован [2012-10-13 14:52] · скачан: 25 раз
Статус: √ проверено
Размер: 8.03 GB
Как cкачать? Как скачать Поворот через торрент | qTorrent

% Раздел Тема Автор DL S | L
Фильмы (Blu-ray, BD-Remux, HDDVD) [ 29.11 GB ] Поворот / U-Turn [1997 BDRemux 1080p от NovaLan] DUB+MVO Ворон Скачать
1 | 0
Фильмы (DVD фильмы) [ 7.4 GB ] Поворот не туда 4 / Wrong Turn 4 [2011 DVD9] R5 voovaz Скачать
1 | 0

28-11-2019 20:33  

Отключить всю рекламу на сайте

13-10-2012 16:42 Поворот Скачать торрент  

нормальный фильмец :good2:pb.wtf



30-10-2018 03:31 Поворот Скачать торрент  

Прикольный фильм,решил пересмотреть... pb.wtf



    Дорогой пользователь! Огромная просьба, поблагодарите релизера, оцените раздачу и оставьте свои комментарий, если Вы скачали Поворот через торрент бесплатно! Внесите свою лепту в развитие PiratBit!
    Комментировать посты могут только пользователи прошедшие не сложную регистрацию
    Показать сообщения:    

    Поворот через торрент
    Скачать бесплатно Поворот
    Поворот скачать торрент
    Поворот смотреть онлайн
    Cкачать фильм Поворот бесплатно
    Поворот скачать торрент в хорошем качестве
    Поворот смотреть онлайн бесплатно в хорошем качестве


    Вы не можете начинать темы
    Вы не можете отвечать на сообщения
    Вы не можете редактировать свои сообщения
    Вы не можете удалять свои сообщения
    Вы не можете голосовать в опросах
    Вы не можете прикреплять файлы к сообщениям
    Вы можете скачивать файлы