Ссылка на приватное зеркало всего за 1$. Внимание количество ограничено!!!

iTunes

iTunes

iTunes

1

iTunes

iTunes

iTunes

WEBRip

iTunes

30
pack

$ от Little Big

ВАЖНО

!!Акция!!

Alien_RageХит недели

RePack

Resident Evil 21

ИГРА 18+

pack

RePack

jed

!!Акция!!

Alien_Rage

RePack

fifa19

RePack

Assassins Creed: Odyssey

RePack

NEED FOR SPEED™ PAYBACK

4 сезон

9 сезон

Бесстыжие 9 сезон

Все сериалы

все сериалы на PB.wtf

RePack

FAR CRY 5
  

Сибирский спас (Ефим Резников.) [1998 г., драма, криминал, психологический, детектив., DVDRip, Оригинал] pb.wtf

Сибирский спас через торрент pb.wtf

Размер: 1.46 GB | Добавлен: 7 лет 9 мес. назад | Торрент скачан:8 раз
Скачать  

14-10-2012 05:35 Сибирский спас Скачать торрент  

Сибирский спас

Год выпуска: 1998
Страна: Россия
Жанр: драма, криминал, психологический, детектив.
Продолжительность: 01:53:43
Перевод: Оригинал

Режиссер: Ефим Резников.
Продюссер: Ефим Резников.
Сценарий: Юрий Коротков, Ефим Резников.

IMDb: 2.00 (7)
http://www.kinopoisk.ru/film/41050/

В ролях: Андрей Молотков, Владимир Виноградов, Игорь Волков, Валерий Баринов, Владимир Качан, Борис Романов, Эльвира Болгова.

Описание: Реставратор икон Бегун лищился всего — жены, сына, любимой профессии. А связавшись с переправкой партии краденых икон за рубеж, в итоге оказался должен крупную сумму денег воротилам преступного мира.
Ему поставили условие: найти и привезти в Москву чудотворную икону «Сибирский Спас», которая сто лет назад осела в одной из затерянных в глухой сибирской тайге деревень. В тайном поселении старообрядцев Бегун обнаружил то, что искал. Но для юной хранительницы иконы Нежданы кража «Спаса» равносильна смертельному приговору, и то, что человек делает деньги на торговле иконами, еще не значит, что в его душе не осталось ничего святого. Бегун оставил свой замысел и решил остаться в селе навсегда.
Икону выкрал его напарник — Рубль. Чтобы спасти девушку от праведнойярости односельчан, Бегун взялся вернуть похищенную святыню и вступил в противоборство с криминальным миром.

Качество: DVDRip
Формат: AVI
Видео кодек: DivX
Аудио кодек: AC3
Видео: MPEG-4 Visual, DivX 5, 1640 Кбит/сек, 688*512 pix, 25,000 кадров/сек
Аудио#1: AC-3, 192 Кбит/сек, 2 канала, 48,0 КГц





Формат : AVI
Формат/Информация : Audio Video Interleave
Размер файла : 1,46 Гбайт
Продолжительность : 1 ч. 53 м.
Общий поток : 1841 Кбит/сек
Программа кодирования : VirtualDubModRus 1.5.10.2 (build 2542/release)
Библиотека кодирования : VirtualDubMod build 2542/release

Видео
Идентификатор : 0
Формат : MPEG-4 Visual
Параметр BVOP формата : 1
Параметр QPel формата : Нет
Параметр GMC формата : Без точки перехода
Параметр матрицы формата : Default (H.263)
Режим смешивания : Сжатый битовый поток
Идентификатор кодека : DX50
Идентификатор кодека/Подсказка : DivX 5
Продолжительность : 1 ч. 53 м.
Битрейт : 1640 Кбит/сек
Ширина : 688 пикселей
Высота : 512 пикселей
Соотношение сторон : 4:3
Частота кадров : 25,000 кадров/сек
Цветовое пространство : YUV
Субдискретизация насыщенности : 4:2:0
Битовая глубина : 8 бит
Тип развёртки : Прогрессивная
Метод сжатия : С потерями
Бит/(Пиксели*Кадры) : 0.186
Размер потока : 1,30 Гбайт (89%)
Библиотека кодирования : DivX 6.8.3-6.8.4 (UTC 2008-06-07)

Аудио
Идентификатор : 1
Формат : AC-3
Формат/Информация : Audio Coding 3
Расширение режима : CM (complete main)
Параметр Endianness формата : Big
Идентификатор кодека : 2000
Продолжительность : 1 ч. 53 м.
Вид битрейта : Постоянный
Битрейт : 192 Кбит/сек
Каналы : 2 канала
Расположение каналов : Front: L R
Частота : 48,0 КГц
Битовая глубина : 16 бит
Метод сжатия : С потерями
Размер потока : 156 Мбайт (10%)
Выравнивание : Соединение по промежуткам
Продолжительность промежутка : 40 мс. (1,00 видеокадр)
Время предзагрузки промежутка : 512 мс.

pb.wtf



Скачать Сибирский спас через торрент http://pic.kartinco.top/images/1/zmck9ug6b4.jpg Скачать фильм Сибирский спас через торрент бесплантно в хорошем качестве Описание: Реставратор икон Бегун лищился всего — жены, сына, любимой профессии. А связавшись с переправкой партии краденых икон за рубеж, в ... 5 10 1
Info! Золотая раздача, скачанное не засчитывается.
Торрент: Зарегистрирован [2012-10-14 05:35] · скачан: 8 раз
Статус: √ проверено
Размер: 1.46 GB
Как cкачать? Как скачать Сибирский спас через торрент | qTorrent

28-11-2019 20:33  

Отключить всю рекламу на сайте

    Дорогой пользователь! Огромная просьба, поблагодарите релизера, оцените раздачу и оставьте свои комментарий, если Вы скачали Сибирский спас через торрент бесплатно! Внесите свою лепту в развитие PiratBit!
    Комментировать посты могут только пользователи прошедшие не сложную регистрацию
    Показать сообщения:    

    Сибирский спас через торрент
    Скачать бесплатно Сибирский спас
    Сибирский спас скачать торрент
    Сибирский спас смотреть онлайн
    Cкачать фильм Сибирский спас бесплатно
    Сибирский спас скачать торрент в хорошем качестве
    Сибирский спас смотреть онлайн бесплатно в хорошем качестве


    Вы не можете начинать темы
    Вы не можете отвечать на сообщения
    Вы не можете редактировать свои сообщения
    Вы не можете удалять свои сообщения
    Вы не можете голосовать в опросах
    Вы не можете прикреплять файлы к сообщениям
    Вы можете скачивать файлы