1 сезон

1 сезон

iTunes

1

КиноПоиск HD

Кинопоиск HD

iTunes

13

1 сезон

RePack

30

Ultimate

ВАЖНО

ИГРА 18+

pack

RePack

MK11
pack

Легкие деньги

RePack

jed

RePack

fifa19

RePack

RDR2

RePack

NEED FOR SPEED™ PAYBACK

4 сезон

9 сезон

Бесстыжие 9 сезон

Все сериалы

все сериалы на PB.wtf

RePack

FAR CRY 5
  
Magnet ссылка

Наследие Тамплиеров / Das Blut der Templer (Флориан Баксмейер) [2004 г., Мистика, Фантастика, Приключения., DVDRip, MVO] pb.wtf

Наследие Тамплиеров через торрент pb.wtf

Размер: 3.18 GB | Добавлен: 8 лет 5 мес. назад | Торрент скачан:115 раз
Скачать  

14-10-2012 14:59 Наследие Тамплиеров Скачать торрент  

Наследие Тамплиеров / Das Blut der Templer

Год выпуска: 2004
Страна: Германия
Жанр: Мистика, Фантастика, Приключения.
Продолжительность: 03:14:39
Перевод: Любительский многоголосый

Режиссер: Флориан Баксмейер
Продюссер: Стефан Барт ((линейный продюс), Кристиан Бекер ((исполнительный продюс), Ули Эберли ((ассоциированный продюс), Дэвид Греневольд ((сопродюс), Katrin Holetzeck ((executive producer: stud), Ули Эберли, Jens Oberwetter ((executive producer: Rat Pack)), Alessandro Passadore ((executive producer: Italy)), Albrecht Prell ((executive producer: Pro7)), Анита Шнайдер ((исполнительный продюс).
Сценарий: Стефан Барт, Kai-Uwe Hasenheit, Вольфган Хохлбейн, Вернер Поссардт, Кристиан Цюберт
Oператор: Герхард Ширло
Kомпозитор: Зигги Мюллер, Егон Ридель
Xудожник: Фрэнк Годт, Алгис Гарбациаускас, Ирен Пьел
Mонтаж: Йенс Клюбер

Премьера в мире: 09.12.2004.
Pелиз на DVD: 30 октября 2008, «Сигма Фильм»

зрителям, достигшим 16 лет ; лицам до 17 лет обязательно присутствие взрослого
IMDb: 5.00 (459)
http://www.kinopoisk.ru/film/103875/

В ролях: Harald Krassnitzer, Мирко Лэнг, Катрин Х. Флемминг, Алиция Бахеда-Цурущ, Саулюс Баландис, Стефан Барт, Дэниэл Дюпон, Zdenek Dvoracek, Питер Франке, Михал Грюн, Ральф Херфорт, Mario Holetzeck, Мартин Хьюб, Rene David Ifrah, Кестутис Якштас, Марек Элинек, Petr Kadlec, Валентинас Климас, Kai Lichtenauer, Dimo Liptkovsky

Описание: Давид — наследник Великого магистра древнего ордена тамплиеров — Рыцарей Храма. Его призвание — не дать силам Зла захватить чашу Святого Грааля и обрести неограниченную Влacть над человечеством.

Не ведая тайны своего происхождения, он становится катализатором цепочки судьбоносных событий. Нескончаемая многовековая битва между Светом и Тьмой за обладание священной реликвией разгорается с новой яростью…

Качество: DVDRip
Формат: MKV
Видео кодек: AVC
Аудио кодек: AC3
Видео: AVC, V_MPEG4/ISO/AVC, 1443 Кбит/сек, 25,000 кадров/сек, 720*576 пикселей
Аудио#1: AC-3, 448 Кбит/сек, 6 каналов, 48,0 КГц

Формат : Matroska
Версия формата : Version 1
Размер файла : 2,58 Гбайт
Продолжительность : 3 ч. 14 м.
Общий поток : 1894 Кбит/сек
Дата кодирования : UTC 2009-03-10 02:35:58
Программа кодирования : mkvmerge v2.2.0 ('Turn It On Again') built on Mar 4 2008 12:58:26
Библиотека кодирования : libebml v0.7.7 + libmatroska v0.8.1

Видео
Идентификатор : 1
Формат : AVC
Формат/Информация : Advanced Video Codec
Профиль формата : High@L3.1
Параметр CABAC формата : Да
Параметр ReFrames формата : 8 кадров
Идентификатор кодека : V_MPEG4/ISO/AVC
Продолжительность : 3 ч. 14 м.
Битрейт : 1443 Кбит/сек
Ширина : 720 пикселей
Высота : 576 пикселей
Соотношение сторон : 16:9
Соотношение сторон в оригинале : 5:4
Режим частоты кадров : Постоянный
Частота кадров : 25,000 кадров/сек
Стандарт вещания : PAL
Цветовое пространство : YUV
Субдискретизация насыщенности : 4:2:0
Битовая глубина : 8 бит
Тип развёртки : Прогрессивная
Бит/(Пиксели*Кадры) : 0.139
Размер потока : 1,92 Гбайт (74%)
Библиотека кодирования : x264 core 66 r1115M 11863ac
Настройки программы : cabac=1 / ref=8 / deblock=1:-1:-1 / analyse=0x3:0x113 / me=umh / subme=8 / psy_rd=1.0:0.0 / mixed_ref=1 / me_range=16 / chroma_me=1 / trellis=2 / 8x8dct=1 / cqm=0 / deadzone=21,11 / chroma_qp_offset=-2 / threads=6 / nr=0 / decimate=1 / mbaff=0 / bframes=3 / b_pyramid=0 / b_adapt=2 / b_bias=0 / direct=3 / wpredb=1 / keyint=250 / keyint_min=25 / scenecut=40(pre) / rc=2pass / bitrate=1443 / ratetol=1.0 / qcomp=0.60 / qpmin=10 / qpmax=51 / qpstep=4 / cplxblur=20.0 / qblur=0.5 / vbv_maxrate=17500 / vbv_bufsize=14000 / ip_ratio=1.40 / pb_ratio=1.30 / aq=1:1.00
Язык : English
Default : Да
Forced : Нет

Аудио
Идентификатор : 2
Формат : AC-3
Формат/Информация : Audio Coding 3
Расширение режима : CM (complete main)
Параметр Endianness формата : Big
Идентификатор кодека : A_AC3
Продолжительность : 3 ч. 14 м.
Вид битрейта : Постоянный
Битрейт : 448 Кбит/сек
Каналы : 6 каналов
Расположение каналов : Front: L C R, Side: L R, LFE
Частота : 48,0 КГц
Битовая глубина : 16 бит
Метод сжатия : С потерями
Размер потока : 624 Мбайт (24%)
Default : Да
Forced : Нет

екст
Идентификатор : 3
Формат : UTF-8
Идентификатор кодека : S_TEXT/UTF8
Идентификатор кодека/Информация : UTF-8 Plain Text
Default : Нет
Forced : Нет

pb.wtf



Скачать Наследие Тамплиеров через торрент https://pic.kartinco.top/images/1/fcnm1m7bvr.jpg Скачать фильм Наследие Тамплиеров через торрент бесплантно в хорошем качестве Описание: Давид — наследник Великого магистра древнего ордена тамплиеров — Рыцарей Храма. Его призвание — не дать силам Зла захватить чашу ... 10 10 5
Info! Золотая раздача, скачанное не засчитывается.
Торрент: Зарегистрирован [2012-10-14 14:59] · скачан: 115 раз
Статус: √ проверено
Размер: 3.18 GB
Как cкачать? Как скачать Наследие Тамплиеров через торрент | UTorrent

% Раздел Тема Автор DL S | L
Фильмы 2001-2005 [ 1.37 GB ] Наследие тамплиеров / Das Blut der Templer [2004 DVDRip] estet24 Скачать
1 | 0
Фильмы (DVD фильмы) [ 1.37 GB ] Наследие тамплиеров / Das Blut der Templer [2004 DVDRip] estet24 Скачать
1 | 0

28-11-2019 20:33  

Отключить всю рекламу на сайте

21-02-2013 10:01 Наследие Тамплиеров Скачать торрент  

Правильней было бы перевести - Кровь Тамплиеров.pb.wtf



    Дорогой пользователь! Огромная просьба, поблагодарите релизера, оцените раздачу и оставьте свои комментарий, если Вы скачали Наследие Тамплиеров через торрент бесплатно! Внесите свою лепту в развитие PiratBit!
    Комментировать посты могут только пользователи прошедшие не сложную регистрацию
    Показать сообщения:    

    Наследие Тамплиеров через торрент
    Скачать бесплатно Наследие Тамплиеров
    Наследие Тамплиеров скачать торрент
    Наследие Тамплиеров смотреть онлайн
    Cкачать фильм Наследие Тамплиеров бесплатно
    Наследие Тамплиеров скачать торрент в хорошем качестве
    Наследие Тамплиеров смотреть онлайн бесплатно в хорошем качестве


    Вы не можете начинать темы
    Вы не можете отвечать на сообщения
    Вы не можете редактировать свои сообщения
    Вы не можете удалять свои сообщения
    Вы не можете голосовать в опросах
    Вы не можете прикреплять файлы к сообщениям
    Вы можете скачивать файлы