Мега распродажа FORZA HORIZON 4 ULTIMATE+ВСЕ DLC+ОНЛАЙН всего за 499р. 349 руб. (супер цена). Внимание количество ограничено!!!

iTunes

1+1

iTunes

мы

iTunes

1

1 сезон

Чернобыль

1 сезон

Ральф против интернета

Лицензия

ПШазам

8 сезон

Игра престолов

Лицензия

30
pack

ВАЖНО

!!Акция!!

Alien_RageХит недели

RePack

Resident Evil 21

ИГРА 18+

pack

RePack

Metro:Exodus

!!Акция!!

Alien_Rage

RePack

fifa19

RePack

Assassins Creed: Odyssey

RePack

NEED FOR SPEED™ PAYBACK

3 сезон

9 сезон

Бесстыжие 9 сезон

Все сериалы

все сериалы на PB.wtf

RePack

FAR CRY 5
Ребята, катастрофически не хватает 2730р. для оплаты серверов за ИЮНЬ (всвязи с блокировками трафик упал в 3 раза), 1-2р., выручайте.
  

Заблудшие души / Lost Souls (Януш Камински) [2000 г., ужасы, триллер, драма, DVDRip, DUB, лицензия] pb.wtf

Заблудшие души через торрент pb.wtf

Размер: 1.44 GB | Добавлен: 6 лет 9 мес. назад | Торрент скачан:87 раз
Скачать  

15-10-2012 17:24 Заблудшие души Скачать торрент  

Заблудшие души / Lost Souls




Год выпуска: 2000
Страна: США
Жанр: ужасы, триллер, драма
Продолжительность: 01:33:54
Перевод: Дубляж, Лицензия





Режиссер: Януш Камински
Продюссер: Мег Райан, Нина Р. Садовски, Кристофер Кронин
Сценарий: Пирс Гарднер, Бетси Стал





Бюджет: $50 000 000
Премьера в мире: 13 октября 2000

В ролях:
Вайнона Райдер,
Бен Чаплин,
Сара Уайнтер,
Филип Бейкер Холл,
Джон Хёрт,
Элиас Котеас,
Брайан Редди,
Джон Бизли,
Джон Дил,
Пол Клейман.




Описание:
Главная героиня узнает о существовании таинственного дьявольского заклятия, воплощение которого грозит человечеству приходом Сатаны. Для того, чтобы предотвратить пришествие Зла, ей надо найти человека, в тело которого собирается вселиться дьявол, и убедить его, что все это — не религиозные бредни, и его жизни угрожает реальная опасность…




Качество: DVDRip
Формат: AVI
Видео кодек: XviD
Аудио кодек: AC3
Видео: MPEG-4 Visual at 1987 Кбит/сек Aspect : 720 x 304 (2.368) at 25.000 fps
Аудио: AC-3 at 192 Кбит/сек Infos : 2 канала, 48,0 КГц

Общее
Полное имя : D:ФильмыужасыLost.Souls.2000.DVDRip.DivX.AC3.RUS.DUB.LOST-MEDIA.avi
Формат : AVI
Формат/Информация : Audio Video Interleave
Размер файла : 1,44 Гбайт
Продолжительность : 1 ч. 33 м.
Общий поток : 2189 Кбит/сек
Название фильма : Lost Souls (2000) by LOST-MEDIA
Жанр : Horror, Thriller
Формат оригинала/Имя : Movie
Правообладатель : Rip by Lennie
Примечание : DVDRip. Download from Lostfiles.tk

Видео
Идентификатор : 0
Формат : MPEG-4 Visual
Профиль формата : Advanced Simple@L5
Параметр BVOP формата : 1
Параметр QPel формата : Нет
Параметр GMC формата : Без точки перехода
Параметр матрицы формата : Default (MPEG)
Идентификатор кодека : XVID
Идентификатор кодека/Подсказка : XviD
Продолжительность : 1 ч. 33 м.
Битрейт : 1987 Кбит/сек
Ширина : 720 пикселей
Высота : 304 пикселя
Соотношение сторон : 2,35:1
Частота кадров : 25,000 кадров/сек
Цветовое пространство : YUV
Субдискретизация насыщенности : 4:2:0
Битовая глубина : 8 бит
Тип развёртки : Прогрессивная
Метод сжатия : С потерями
Бит/(Пиксели*Кадры) : 0.363
Размер потока : 1,30 Гбайт (91%)
Библиотека кодирования : XviD 1.2.1 (UTC 2008-12-04)

Аудио
Идентификатор : 1
Формат : AC-3
Формат/Информация : Audio Coding 3
Расширение режима : CM (complete main)
Идентификатор кодека : 2000
Продолжительность : 1 ч. 33 м.
Вид битрейта : Постоянный
Битрейт : 192 Кбит/сек
Каналы : 2 канала
Расположение каналов : Front: L R
Частота : 48,0 КГц
Битовая глубина : 16 бит
Метод сжатия : С потерями
Размер потока : 129 Мбайт (9%)
Выравнивание : Разделение по промежуткам
Продолжительность промежутка : 40 мс. (1,00 видеокадр)
Время предзагрузки промежутка : 500 мс.
Язык : 5

pb.wtf



Скачать Заблудшие души через торрент http://i45.fastpic.ru/big/2012/1015/f7/b3868140bfb56e2dafe3ef4ea5e8f1f7.png Скачать фильм Заблудшие души через торрент бесплантно в хорошем качестве Описание: Главная героиня узнает о существовании таинственного дьявольского заклятия, воплощение которого грозит человечеству приходом ... 5 10 1
Info! Золотая раздача, скачанное не засчитывается.
Торрент: Зарегистрирован [2012-10-15 17:24] · скачан: 87 раз
Статус: √ проверено
Размер: 1.44 GB
Как cкачать? Как скачать Заблудшие души через торрент | qTorrent


>> Регистрируемся здесь <<






Отзывы и комментарии о схеме читаем и пишем здесь: ---> Отзывы и комментарии о схеме

Новые благодарочки в телеграм довольных пользователей:
скриншот   скриншот   скриншот   скриншот   скриншот
    Дорогой пользователь! Огромная просьба, поблагодарите релизера, оцените раздачу и оставьте свои комментарий, если Вы скачали Заблудшие души через торрент бесплатно! Внесите свою лепту в развитие PiratBit!
    Комментировать посты могут только пользователи прошедшие не сложную регистрацию
    Показать сообщения:    

    Заблудшие души через торрент
    Скачать бесплатно Заблудшие души
    Заблудшие души скачать торрент
    Заблудшие души смотреть онлайн
    Cкачать фильм Заблудшие души бесплатно
    Заблудшие души скачать торрент в хорошем качестве
    Заблудшие души смотреть онлайн бесплатно в хорошем качестве


    Вы не можете начинать темы
    Вы не можете отвечать на сообщения
    Вы не можете редактировать свои сообщения
    Вы не можете удалять свои сообщения
    Вы не можете голосовать в опросах
    Вы не можете прикреплять файлы к сообщениям
    Вы можете скачивать файлы