новый адрес
Ссылка на приватное зеркало всего за 1$. Внимание количество ограничено!!!

iTunes

1+1

iTunes

мы

iTunes

1

iTunes

Чернобыль

iTunes

Ральф против интернета

Лицензия

ПШазам

Лицензия

Оно 2

Лицензия

30
pack

Вам бонус

ВАЖНО

!!Акция!!

Alien_RageХит недели

RePack

Resident Evil 21

ИГРА 18+

pack

RePack

jed

!!Акция!!

Alien_Rage

RePack

fifa19

RePack

Assassins Creed: Odyssey

RePack

NEED FOR SPEED™ PAYBACK

3 сезон

9 сезон

Бесстыжие 9 сезон

Все сериалы

все сериалы на PB.wtf

RePack

FAR CRY 5
Ребята, катастрофически не хватает 1900р. для оплаты серверов за Октябрь (всвязи с блокировками трафик упал в 3 раза), 1-2р., выручайте.
  

Гавана, я люблю тебя / 7 dias en La Habana (7 Days in Havana) (Бенисио Дель Торо, Пабло Траперо, Элиа Сулейман) [2012 г., драма, BDRip, DUB, лицензия] pb.wtf

Гавана, я люблю тебя через торрент pb.wtf

Размер: 2.06 GB | Добавлен: 7 лет 1 мес. назад | Торрент скачан:213 раз
Скачать  

16-10-2012 11:53 Гавана, я люблю тебя Скачать торрент  

Гавана, я люблю тебя / 7 dias en La Habana (7 Days in Havana)

Год выпуска: 2012
Страна: Испания, Франция
Жанр: драма
Продолжительность: 02:08:50
Перевод: Дубляж, Лицензия
Тип релиза: Лицензия

Режиссер: Бенисио Дель Торо, Пабло Траперо, Элиа Сулейман
Продюссер: Лорен Боден, Дидар Домери, Альваро Лонгария
Сценарий: Леонардо Падура

Бюджет: €3 000 000
Премьера в мире: 23 мая 2012



В ролях: Даниэль Брюль, Эмир Кустурица, Элиа Сулейман, Джош Хатчерсон, Владимир Крус, Мирта Ибарра, Хорхе Перугоррия, Мелвиз Санта Эстевес, Дэйзи Гранадос, Луис Альберто Гарсия

Описание: Мастера мирового авторского кино сняли 7 маленьких увлекательных историй, действие которых происходит в Гаване.

Качество: BDRip[Рип с Blu-ray]
Формат: AVI
Видео кодек: XviD
Аудио кодек: AC3
Видео: 720x384 (1.88:1), 23.976 fps, XviD build 50 ~1500kbps avg, 0.28 bit/pixel
Аудио#1: 48 kHz, AC3 Dolby Digital, 3/2 (L,C,R,l,r) + LFE ch, ~384 kbps
Релиз от:

General
Complete name Gavana.ja.ljublju.tebja.2012.BDRip.2xRus.avi
Format : AVI
Format/Info : Audio Video Interleave
File size : 2.06 GiB
Duration : 2h 8mn
Overall bit rate : 2 286 Kbps
Director : -=R.G.GOliaf=-
Writing application : VirtualDubMod 1.5.10.2 (build 2540/release)
Writing library : VirtualDubMod build 2540/release

Video
ID : 0
Format : MPEG-4 Visual
Format profile : Advanced Simple@L5
Format settings, BVOP : 2
Format settings, QPel : No
Format settings, GMC : No warppoints
Format settings, Matrix : Default (MPEG)
Codec ID : XVID
Codec ID/Hint : XviD
Duration : 2h 8mn
Bit rate : 1 417 Kbps
Width : 720 pixels
Height : 384 pixels
Display aspect ratio : 1.875
Frame rate : 23.976 fps
Color space : YUV
Chroma subsampling : 4:2:0
Bit depth : 8 bits
Scan type : Progressive
Compression mode : Lossy
Bits/(Pixel*Frame) : 0.214
Stream size : 1.28 GiB (62%)
Writing library : XviD 65

Audio #1
ID : 1
Format : AC-3
Format/Info : Audio Coding 3
Mode extension : CM (complete main)
Codec ID : 2000
Duration : 2h 8mn
Bit rate mode : Constant
Bit rate : 384 Kbps
Channel(s) : 6 channels
Channel positions : Front: L C R, Side: L R, LFE
Sampling rate : 48.0 KHz
Bit depth : 16 bits
Compression mode : Lossy
Stream size : 354 MiB (17%)
Alignment : Split accross interleaves

Audio #2
ID : 2
Format : AC-3
Format/Info : Audio Coding 3
Mode extension : CM (complete main)
Codec ID : 2000
Duration : 2h 8mn
Bit rate mode : Constant
Bit rate : 384 Kbps
Channel(s) : 6 channels
Channel positions : Front: L C R, Side: L R, LFE
Sampling rate : 48.0 KHz
Bit depth : 16 bits
Compression mode : Lossy
Stream size : 354 MiB (17%)
Alignment : Split accross interleaves

pb.wtf



Скачать Гавана, я люблю тебя через торрент http://pic.kartinco.top/images/1/jsop5sd9vt.png Скачать фильм Гавана, я люблю тебя через торрент бесплантно в хорошем качестве Описание: Мастера мирового авторского кино сняли 7 маленьких увлекательных историй, действие которых происходит в ... 5 10 1
Info! Золотая раздача, скачанное не засчитывается.
Торрент: Зарегистрирован [2012-10-16 11:53] · скачан: 213 раз
Статус: √ проверено
Размер: 2.06 GB
Как cкачать? Как скачать Гавана, я люблю тебя через торрент | qTorrent

% Раздел Тема Автор DL S | L
Арт-хаус и авторское кино [ 1.45 GB ] Гавана я люблю тебя / 7 dias en La Habana / 7 Days in Havana [2012 DVDRip DUB лицензия] Ворон Скачать
1 | 0
Арт-хаус и авторское кино [ 746 MB ] Гавана я люблю тебя / 7 dias en La Habana / 7 Days in Havana [2012 DVDRip] DUB Oдин 777 Скачать
1 | 0
Фильмы (DVD фильмы) [ 7.01 GB ] Гавана я люблю тебя / 7 dias en La Habana / 7 Days in Havana [2012 DVD9] R5 voovaz Скачать
1 | 0
Арт-хаус и авторское кино [ 2.18 GB ] Гавана я люблю тебя / 7 dias en La Habana / 7 Days in Havana [2012 DVDRip DUB лицензия] Ворон Скачать
1 | 0

28-11-2019 20:33  

Отключить всю рекламу на сайте

    Дорогой пользователь! Огромная просьба, поблагодарите релизера, оцените раздачу и оставьте свои комментарий, если Вы скачали Гавана, я люблю тебя через торрент бесплатно! Внесите свою лепту в развитие PiratBit!
    Комментировать посты могут только пользователи прошедшие не сложную регистрацию
    Показать сообщения:    

    Гавана, я люблю тебя через торрент
    Скачать бесплатно Гавана, я люблю тебя
    Гавана, я люблю тебя скачать торрент
    Гавана, я люблю тебя смотреть онлайн
    Cкачать фильм Гавана, я люблю тебя бесплатно
    Гавана, я люблю тебя скачать торрент в хорошем качестве
    Гавана, я люблю тебя смотреть онлайн бесплатно в хорошем качестве


    Вы не можете начинать темы
    Вы не можете отвечать на сообщения
    Вы не можете редактировать свои сообщения
    Вы не можете удалять свои сообщения
    Вы не можете голосовать в опросах
    Вы не можете прикреплять файлы к сообщениям
    Вы можете скачивать файлы