MEGA SALE -50% FORZA HORIZON 4 ULTIMATE+ВСЕ DLC+ОНЛАЙН всего за 599р. 299 руб. (супер цена). Внимание количество ограничено!!!

iTunes

1+1

iTunes

мы

iTunes

1

iTunes

Чернобыль

1 сезон

Ральф против интернета

Лицензия

ПШазам

Лицензия

Игра престолов

Лицензия

30
pack

ВАЖНО

!!Акция!!

Alien_RageХит недели

RePack

Resident Evil 21

ИГРА 18+

pack

RePack

Metro:Exodus

!!Акция!!

Alien_Rage

RePack

fifa19

RePack

Assassins Creed: Odyssey

RePack

NEED FOR SPEED™ PAYBACK

3 сезон

9 сезон

Бесстыжие 9 сезон

Все сериалы

все сериалы на PB.wtf

RePack

FAR CRY 5
Ребята, катастрофически не хватает 7730р. для оплаты серверов за ИЮЛЬ (всвязи с блокировками трафик упал в 3 раза), 1-2р., выручайте.
  

Фантомная боль / Phantomschmerz (Маттиас Эмке) [2009 г., драма, биография, HDRip, MVO] pb.wtf

Фантомная боль через торрент pb.wtf

Размер: 1.45 GB | Добавлен: 6 лет 10 мес. назад | Торрент скачан:44 раза
Скачать  

16-10-2012 12:05 Фантомная боль Скачать торрент  

Фантомная боль / PhantomschmerzГод выпуска: 2009
Страна: Германия
Жанр: драма, биография
Продолжительность: 01:37:31
Перевод: Профессиональный многоголосый

Режиссер: Маттиас Эмке
Продюссер: Хеннинг Фербер, Маркус Велке, Себастьян Зюр
Сценарий: Маттиас Эмке

Премьера в мире: 30 апреля 2009



В ролях: Тиль Швайгер, Яна Палласке, Стипе Эрчег, Луна Швайгер, Алвара Хёфельс, Эллени Сальво Гонзалез, Карина Визе, Годе Бенедикс, Джулия Брендлер, Кида Рамадан

Описание: «Фантомная боль» мучает Марка, потерявшего ногу в автомобильной катастрофе. Ему больнее вдвойне: такого отчаянного велогонщика и любителя женщин еще нужно поискать. Увлекаясь не на шутку, он начисто терял чувство ответственности, даже по отношению к собственной дочери. И только авария повлияла на его «ощущение реальности».

Доп. информация:
КИНОПОИСК
Хорошее, сентиментальное кино!

По ходу просмотра нет напрряжения, отвращение… Спокойно, сидишь и смотришь чужую историю, обычную чужую историю жизни. По впечатление чем-то напомнило «Рестлер», но этот фильм что ли добрее и можно даже выразиться, менее «пессимистичный». Приятно смотреть фильм до самого конца, а потом сидеть, тупо смотреть в титры и слушать приятную мелодию, выполненную на акустической гитаре.

Нельзя пройти мимо этого кино, но и не ждите многого.

8 из 10
Фильм базируется на реальных событиях, произошедших в 2004 году с велосипедистом, другом режиссёра, Штефаном Зумнером.
Качество: HDRip
Формат: AVI
Видео кодек: XviD
Аудио кодек: AC3
Видео: 720x304 (2.37:1), 23.976 fps, XviD build 63 ~1741 kbps avg, 0.33 bit/pixel
Аудио: 48 kHz, AC3 Dolby Digital, 3/2 (L,C,R,l,r) + LFE ch, ~384 kbps





Общее
Полное имя : E:ТоррентыPiratbitFantomnaya bol.avi
Формат : AVI
Формат/Информация : Audio Video Interleave
Размер файла : 1,45 Гбайт
Продолжительность : 1 ч. 37 м.
Общий поток : 2134 Кбит/сек
Программа кодирования : VirtualDubModRus 1.5.10.2 (build 2542/release)

Видео
Идентификатор : 0
Формат : MPEG-4 Visual
Профиль формата : Advanced Simple@L5
Параметр BVOP формата : 1
Параметр QPel формата : Нет
Параметр GMC формата : Без точки перехода
Параметр матрицы формата : Выборочная
Идентификатор кодека : XVID
Идентификатор кодека/Подсказка : XviD
Продолжительность : 1 ч. 37 м.
Битрейт : 1741 Кбит/сек
Ширина : 720 пикселей
Высота : 304 пикселя
Соотношение сторон : 2,35:1
Частота кадров : 23,976 кадра/сек
Цветовое пространство : YUV
Субдискретизация насыщенности : 4:2:0
Битовая глубина : 8 бит
Тип развёртки : Прогрессивная
Метод сжатия : С потерями
Бит/(Пиксели*Кадры) : 0.332
Размер потока : 1,19 Гбайт (82%)
Библиотека кодирования : XviD 63

Аудио
Идентификатор : 1
Формат : AC-3
Формат/Информация : Audio Coding 3
Расширение режима : CM (complete main)
Параметр Endianness формата : Big
Идентификатор кодека : 2000
Продолжительность : 1 ч. 37 м.
Вид битрейта : Постоянный
Битрейт : 384 Кбит/сек
Каналы : 6 каналов
Расположение каналов : Front: L C R, Side: L R, LFE
Частота : 48,0 КГц
Битовая глубина : 16 бит
Метод сжатия : С потерями
Размер потока : 268 Мбайт (18%)
Выравнивание : Разделение по промежуткам
Продолжительность промежутка : 42 мс. (1,00 видеокадр)
Время предзагрузки промежутка : 500 мс.

pb.wtf



Скачать Фантомная боль через торрент http://pic.kartinco.top/images/1/f9qtpn7gf2.png Скачать фильм Фантомная боль через торрент бесплантно в хорошем качестве Описание: «Фантомная боль» мучает Марка, потерявшего ногу в автомобильной катастрофе. Ему больнее вдвойне: такого отчаянного велогонщика и ... 5 10 1
Info! Золотая раздача, скачанное не засчитывается.
Торрент: Зарегистрирован [2012-10-16 12:05] · скачан: 44 раз
Статус: √ проверено
Размер: 1.45 GB
Как cкачать? Как скачать Фантомная боль через торрент | qTorrent

% Раздел Тема Автор DL S | L
Фильмы [HD 720p, 1080p] (Хороший звук DUB, MVO) [ 10.45 GB ] Фантомная боль / Phantomschmerz [2009 биография BDRip 1080p by msltel] MVO VO msltel Скачать
1 | 0
Фильмы [HD 720p, 1080p] (Хороший звук DUB, MVO) [ 4.09 GB ] Фантомная боль / Phantomschmerz [2009 биография BDRip 720p by msltel] MVO VO msltel Скачать
1 | 1
Фильмы 2009 [ 1.45 GB ] Фантомная боль / Phantomschmerz [2009 HDRip] aspace Скачать
1 | 0


>> Регистрируемся здесь <<






Отзывы и комментарии о схеме читаем и пишем здесь: ---> Отзывы и комментарии о схеме

Новые благодарочки в телеграм довольных пользователей:
скриншот   скриншот   скриншот   скриншот   скриншот

16-10-2012 12:08 Фантомная боль Скачать торрент  

Приятного просмотра! pb.wtf



16-10-2012 12:54 Фантомная боль Скачать торрент  

наверно очередной говношлак........pb.wtf



16-10-2012 13:31 Фантомная боль Скачать торрент  

Фильмы со Швайгером всегда интересные былиpb.wtf



16-10-2012 17:56 Фантомная боль Скачать торрент  

Спасибо, забираю...pb.wtf



    Дорогой пользователь! Огромная просьба, поблагодарите релизера, оцените раздачу и оставьте свои комментарий, если Вы скачали Фантомная боль через торрент бесплатно! Внесите свою лепту в развитие PiratBit!
    Комментировать посты могут только пользователи прошедшие не сложную регистрацию
    Показать сообщения:    

    Фантомная боль через торрент
    Скачать бесплатно Фантомная боль
    Фантомная боль скачать торрент
    Фантомная боль смотреть онлайн
    Cкачать фильм Фантомная боль бесплатно
    Фантомная боль скачать торрент в хорошем качестве
    Фантомная боль смотреть онлайн бесплатно в хорошем качестве


    Вы не можете начинать темы
    Вы не можете отвечать на сообщения
    Вы не можете редактировать свои сообщения
    Вы не можете удалять свои сообщения
    Вы не можете голосовать в опросах
    Вы не можете прикреплять файлы к сообщениям
    Вы можете скачивать файлы