2 сезон

iTunes

MVO

1

2 сезон

iTunes

iTunes

1 сезон

RePack

30

Новинка

ВАЖНО

ИГРА 18+

pack

RePack

MK11
pack

Легкие деньги

RePack

jed

RePack

fifa19

RePack

RDR2

RePack

NEED FOR SPEED™ PAYBACK

4 сезон

9 сезон

Бесстыжие 9 сезон

Все сериалы

все сериалы на PB.wtf

RePack

FAR CRY 5

Anonymous, доброе утро, мы не успеваем собрать деньги на оплату серверов за декабрь и январь, помогите нам пожалуйста в это трудное время. В качестве благодарности мы отключим Вам всю рекламу на сайте (укажите свой ник в строку Ваше имя)!

×
  
Magnet ссылка

Баста ака Ноггано (39 клипов)[2009-12 г., Rap & Hip-Hop, WEBRip] pb.wtf

Баста ака Ноггано через торрент pb.wtf

Размер: 3.49 GB | Добавлен: 8 лет 3 мес. назад | Торрент скачан:682 раза
Скачать  

17-10-2012 09:19 Баста ака Ноггано Скачать торрент  

Баста ака Ноггано Год выпуска: 2009-2012
Страна: Россия
Жанр: Rap & Hip-Hop
Продолжительность: каждый клип от 3 до 9 минут

Качество: WEBRip
Формат: MP4
Видео кодек: AVC
Аудио кодек: AAC LC
Видео: MPEG4 Video (H264) 1280x720 24-29fps 1549-2997kbps
Аудио: AAC 44100Hz stereo 2 ch (L,R) 128-152kbps
  • N1nt3ndo ft Крёстная семья - Отмели
  • Баста - Весна
  • Баста - Раз и навсегда
  • Баста - Ростов
  • Баста - Здесь даже солнца не видно
  • Баста - Урбан
  • Баста_Гуф - Самурай
  • Баста ft Леся Верба - Сон
  • Баста,Словетский,Смоки Мо - Свобода
  • Вася Обломов, Ноггано - Письмо счастья
  • Ноггано - Криминал
  • Ноггано - Гарлем
  • Ноггано - Мути без спешки
  • Ноггано - Ростов город,Ростов - Дон
  • Ноггано ft Купэ - Водка
  • Ноггано ft Витёк - Кто вспомнит обо мне
  • Ноггано ft. Гуф АК-47 - Тем Кто с Нами
  • Ноггано ft Словетский - Будь здоров
  • Баста ft Песочные люди - Весь этот мир
  • Баста - Baby Boy
  • Баста - Босанова
  • Баста - Мама
  • Баста - Осень
  • Баста - Тёмная ночь
  • Баста - Чайный пьяница
  • Баста ft Город 312 - Обернись
  • Баста ft Гуф - Моя игра
  • Баста ft Гуф - Соответственно
  • Баста ft Максим - Наше лето
  • Баста ft Тати - Любовь без памяти (ost Антикиллер)
  • Ноггано - Ёба.ый насос
  • Ноггано - Кирпичи
  • Ноггано ft АК-47 - Вставляет нереально
  • Баста ft Гуф - Другая волна
  • Ноггано ft Купе - Наше гетто
  • Ноггано ft Купе - С новым годом
  • Ноггано ft Витёк & Тати - Просто верь
  • Ноггано ft Крёстная семья - Жульбаны
  • Баста ft Гуф - Качели
  • скриншот   скриншот   скриншот   скриншот   скриншот   скриншот   скриншот   скриншот   скриншот  
    Общее
    Полное имя : H:Баста ака НогганоN1NT3ND0 ft. Крестная Семья - Отмели.mp4
    Формат : MPEG-4
    Профиль формата : Base Media / Version 2
    Идентификатор кодека : mp42
    Размер файла : 123 Мбайт
    Продолжительность : 9 м. 15 с.
    Режим общего битрейта : Переменный
    Общий поток : 1859 Кбит/сек
    Дата кодирования : UTC 2011-08-20 15:44:29
    Дата пометки : UTC 2011-08-20 15:44:29
    gsst : 0
    gstd : 555166
    gssd : BBC2B4044HH1350458239608051
    gshh : o-o---preferred---sn-ug5onuxaxjvh-304e---v9---lscache2.c.youtube.com

    Видео
    Идентификатор : 1
    Формат : AVC
    Формат/Информация : Advanced Video Codec
    Профиль формата : High@L3.1
    Параметр CABAC формата : Да
    Параметр ReFrames формата : 1 кадр
    Идентификатор кодека : avc1
    Идентификатор кодека/Информация : Advanced Video Coding
    Продолжительность : 9 м. 15 с.
    Битрейт : 1701 Кбит/сек
    Максимальный битрейт : 12,9 Мбит/сек
    Ширина : 1280 пикселей
    Высота : 720 пикселей
    Соотношение сторон : 16:9
    Режим частоты кадров : Переменный
    Частота кадров : 24,000 кадра/сек
    Минимальная частота кадров : 23,810 кадра/сек
    Максимальная частота кадров : 24,390 кадра/сек
    Цветовое пространство : YUV
    Субдискретизация насыщенности : 4:2:0
    Битовая глубина : 8 бит
    Тип развёртки : Прогрессивная
    Бит/(Пиксели*Кадры) : 0.077
    Размер потока : 113 Мбайт (92%)
    Дата пометки : UTC 2011-08-20 15:44:33

    Аудио
    Идентификатор : 2
    Формат : AAC
    Формат/Информация : Advanced Audio Codec
    Профиль формата : LC
    Идентификатор кодека : 40
    Продолжительность : 9 м. 15 с.
    Вид битрейта : Переменный
    Битрейт : 152 Кбит/сек
    Максимальный битрейт : 198 Кбит/сек
    Каналы : 2 канала
    Расположение каналов : Front: L R
    Частота : 44,1 КГц
    Метод сжатия : С потерями
    Размер потока : 10,1 Мбайт (8%)
    Заголовок : IsoMedia File Produced by Google, 5-11-2011
    Дата кодирования : UTC 2011-08-20 15:44:30
    Дата пометки : UTC 2011-08-20 15:44:33
    pb.wtf



    Скачать Баста ака Ноггано через торрент http://i41.fastpic.ru/big/2012/0718/06/de9fec674676d5539e95f1f37208de06.png Скачать фильм Баста ака Ноггано через торрент бесплантно в хорошем качестве Год выпуска: 2009-2012Страна: РоссияЖанр: Rap & Hip-HopПродолжительность: каждый клип от 3 до 9 ... 10 10 8
    Info! Золотая раздача, скачанное не засчитывается.
    Торрент: Зарегистрирован [2012-10-17 12:14] · скачан: 682 раз
    Статус: √ проверено
    Размер: 3.49 GB
    Как cкачать? Как скачать Баста ака Ноггано через торрент | UTorrent

    28-11-2019 20:33  

    Отключить всю рекламу на сайте

    17-10-2012 12:16 Баста ака Ноггано Скачать торрент  

    Раздача обновлена 17.10.2012, всем просьба перехешироватьpb.wtf



    18-10-2012 13:55 Баста ака Ноггано Скачать торрент  

    ещё 'Полина' забылиpb.wtf



      Дорогой пользователь! Огромная просьба, поблагодарите релизера, оцените раздачу и оставьте свои комментарий, если Вы скачали Баста ака Ноггано через торрент бесплатно! Внесите свою лепту в развитие PiratBit!
      Комментировать посты могут только пользователи прошедшие не сложную регистрацию
      Показать сообщения:    

      Баста ака Ноггано через торрент
      Скачать бесплатно Баста ака Ноггано
      Баста ака Ноггано скачать торрент
      Баста ака Ноггано смотреть онлайн
      Cкачать фильм Баста ака Ноггано бесплатно
      Баста ака Ноггано скачать торрент в хорошем качестве
      Баста ака Ноггано смотреть онлайн бесплатно в хорошем качестве


      Вы не можете начинать темы
      Вы не можете отвечать на сообщения
      Вы не можете редактировать свои сообщения
      Вы не можете удалять свои сообщения
      Вы не можете голосовать в опросах
      Вы не можете прикреплять файлы к сообщениям
      Вы можете скачивать файлы