новый адрес
Ссылка на приватное зеркало всего за 1$. Внимание количество ограничено!!!

iTunes

1+1

iTunes

мы

WEB-DL

1

iTunes

Чернобыль

iTunes

Ральф против интернета

Лицензия

ПШазам

Лицензия

Оно 2

Лицензия

30
pack

Вам бонус

ВАЖНО

!!Акция!!

Alien_RageХит недели

RePack

Resident Evil 21

ИГРА 18+

pack

RePack

jed

!!Акция!!

Alien_Rage

RePack

fifa19

RePack

Assassins Creed: Odyssey

RePack

NEED FOR SPEED™ PAYBACK

3 сезон

9 сезон

Бесстыжие 9 сезон

Все сериалы

все сериалы на PB.wtf

RePack

FAR CRY 5
Ребята, катастрофически не хватает 1900р. для оплаты серверов за Октябрь (всвязи с блокировками трафик упал в 3 раза), 1-2р., выручайте.
  

Мельница и крест / The Mill and the Cross (Лех Маевский) [2011 г., исторический ,драма, HDRip, MVO, лицензия] pb.wtf

Мельница и крест через торрент pb.wtf

Размер: 1.36 GB | Добавлен: 5 лет 2 мес. назад | Торрент скачан:39 раз
Скачать  

17-10-2012 10:50 Мельница и крест Скачать торрент  


Мельница и крест / The Mill and the Cross
Год выпуска: 2011
Страна: Швеция, Польша,Angelus Silesius, Polish Film Institute
Жанр: исторический ,драма
Продолжительность: 01:35:42
Перевод: Профессиональный многоголосый, Лицензия

Режиссер: Лех Маевский

В ролях: Рутгер Хауэр, Шарлотта Рэмплинг, Майкл Йорк, Оскар Гуличка, Йоанна Литвин, Мариан Макуля

Описание: В основе фильма — написанный в 1564 году Питером Брейгелем шедевр «Путь на Голгофу», созданный на сюжет Страстей Христовых. Картина Леха Маевского представляет собой фантазию на тему судеб десяти персонажей, которых можно увидеть на знаменитом полотне (в их числе — Дева Мария), самого Питера Брейгеля и антверпенского купца, коллекционера предметов искусства Николоса Йонгелинка, по заказу которого художником было создано несколько картин.
Доп. информация:


Качество: HDRip
Формат: AVI
Видео кодек: XviD
Аудио кодек: AC3
Видео: 720x400 (1.80:1), 23.976 fps, XviD MPEG-4 ~1640 kbps avg, 0.24 bit/pixel
Аудио#1: 48 kHz, AC3 Dolby Digital, 2/0 (L,R) ch, ~192 kbps|Русский
Аудио#2: 48 kHz, AC3 Dolby Digital, 2/0 (L,R) ch, ~192 kbps|Английский


Video #0
ID : 0
Format : MPEG-4 Visual
Format profile : Advanced Simple@L5
Format settings, BVOP : 2
Format settings, QPel : No
Format settings, GMC : 3 warppoints
Format settings, Matrix : Default (MPEG)
Muxing mode : Packed bitstream
Codec ID : XVID
Codec ID/Hint : XviD
Duration : 1h 35mn
Bit rate : 1 641 Kbps
Width : 720 pixels
Height : 400 pixels
Display aspect ratio : 16:9
Frame rate : 23.976 fps
Color space : YUV
Chroma subsampling : 4:2:0
Bit depth : 8 bits
Scan type : Progressive
Compression mode : Lossy
Bits/(Pixel*Frame) : 0.238
Stream size : 1.10 GiB (80%)
Writing library : XviD 1.2.1 (UTC 2008-12-04)
Audio #1
ID : 1
Format : AC-3
Format/Info : Audio Coding 3
Mode extension : CM (complete main)
Format settings, Endianness : Big
Codec ID : 2000
Duration : 1h 35mn
Bit rate mode : Constant
Bit rate : 192 Kbps
Channel(s) : 2 channels
Channel positions : Front: L R
Sampling rate : 48.0 KHz
Bit depth : 16 bits
Compression mode : Lossy
Delay relative to video : 2s 900ms
Stream size : 131 MiB (9%)
Alignment : Split accross interleaves
Interleave, duration : 42 ms (1.00 video frame)
Interleave, preload duration : 500 ms
Audio #2
ID : 2
Format : AC-3
Format/Info : Audio Coding 3
Mode extension : CM (complete main)
Format settings, Endianness : Big
Codec ID : 2000
Duration : 1h 35mn
Bit rate mode : Constant
Bit rate : 192 Kbps
Channel(s) : 2 channels
Channel positions : Front: L R
Sampling rate : 48.0 KHz
Bit depth : 16 bits
Compression mode : Lossy
Stream size : 131 MiB (9%)
Alignment : Split accross interleaves
Interleave, duration : 42 ms (1.00 video frame)
Interleave, preload duration : 500 ms

pb.wtf



Скачать Мельница и крест через торрент http://i32.fastpic.ru/big/2012/0306/95/bfd4fa7d965ce9b4a7157cf3a04bbc95.png Скачать фильм Мельница и крест через торрент бесплантно в хорошем качестве Описание: В основе фильма — написанный в 1564 году Питером Брейгелем шедевр «Путь на Голгофу», созданный на сюжет Страстей Христовых. ... 10 10 2
Торрент: Зарегистрирован [2014-09-14 11:00] · скачан: 39 раз
Статус: √ проверено
Размер: 1.36 GB
Как cкачать? Как скачать Мельница и крест через торрент | qTorrent



Последний раз редактировалось: PsYcho (2012-10-17 11:09), всего редактировалось 2 раз(а)

28-11-2019 20:33  

Отключить всю рекламу на сайте

17-10-2012 10:55 Мельница и крест Скачать торрент  

Добавь описание (язык) в аудиодорожкиpb.wtf



17-10-2012 12:02 Мельница и крест Скачать торрент  

классный фильм-для любителей истории. спасибо за трудыpb.wtf



17-10-2012 12:22 Мельница и крест Скачать торрент  

Фильм - полное г.! Несмотря на "Роджера Хуера"! (так называл глпвного актёра явно нелюбивший его переводчик, не помню в каком фильме)pb.wtf



17-10-2012 15:48 Мельница и крест Скачать торрент  

Бред ПОЛНЫЙ !!!!pb.wtf



    Дорогой пользователь! Огромная просьба, поблагодарите релизера, оцените раздачу и оставьте свои комментарий, если Вы скачали Мельница и крест через торрент бесплатно! Внесите свою лепту в развитие PiratBit!
    Комментировать посты могут только пользователи прошедшие не сложную регистрацию
    Показать сообщения:    

    Мельница и крест через торрент
    Скачать бесплатно Мельница и крест
    Мельница и крест скачать торрент
    Мельница и крест смотреть онлайн
    Cкачать фильм Мельница и крест бесплатно
    Мельница и крест скачать торрент в хорошем качестве
    Мельница и крест смотреть онлайн бесплатно в хорошем качестве


    Вы не можете начинать темы
    Вы не можете отвечать на сообщения
    Вы не можете редактировать свои сообщения
    Вы не можете удалять свои сообщения
    Вы не можете голосовать в опросах
    Вы не можете прикреплять файлы к сообщениям
    Вы можете скачивать файлы