Мега распродажа FORZA HORIZON 4 ULTIMATE+ВСЕ DLC+ОНЛАЙН всего за 499р. 349 руб. (супер цена). Внимание количество ограничено!!!

iTunes

1+1

iTunes

мы

iTunes

1

1 сезон

Чернобыль

1 сезон

Ральф против интернета

Лицензия

ПШазам

8 сезон

Игра престолов

Лицензия

30
pack

ВАЖНО

!!Акция!!

Alien_RageХит недели

RePack

Resident Evil 21

ИГРА 18+

pack

RePack

Metro:Exodus

!!Акция!!

Alien_Rage

RePack

fifa19

RePack

Assassins Creed: Odyssey

RePack

NEED FOR SPEED™ PAYBACK

3 сезон

9 сезон

Бесстыжие 9 сезон

Все сериалы

все сериалы на PB.wtf

RePack

FAR CRY 5
Ребята, катастрофически не хватает 2730р. для оплаты серверов за ИЮНЬ (всвязи с блокировками трафик упал в 3 раза), 1-2р., выручайте.
  

Мужчина по вызову / Deuce Bigalow: Male Gigolo (Майк Митчел) [1999 г., комедия, HDTV-AVC, VO] pb.wtf

Мужчина по вызову через торрент pb.wtf

Размер: 1.45 GB | Добавлен: 6 лет 8 мес. назад | Торрент скачан:56 раз
Скачать  

18-10-2012 09:12 Мужчина по вызову Скачать торрент  

Мужчина по вызову / Deuce Bigalow: Male Gigolo

Год выпуска: 1999
Страна: США
Жанр: комедия
Продолжительность: 01:28:27
Перевод: Любительский одноголосый (П. Санаев)

Режиссер: Майк Митчел
Продюссер: Бэрри Бернарди, Сидни Гэнис, Мишель Арчер
Сценарий: Харрис Голдберг, Роб Шнайдер

Бюджет: $17 000 000
Премьера в мире: 2 декабря 1999


Мировой рейтинг IMDB 5.60 (39 026)


В ролях: Роб Шнайдер, Уильям Форсайт, Эдди Гриффин, Ария Барейкис, Одед Фер, Гэйл О’Грэйди, Ричард Риле, Жаклин Обрадорс, Биг Бой, Эми Полер

Описание: Дьюс Бигалоу всегда был уверен в том, что создан для большего, чем просто чистить аквариумы. И вот судьба делает крутой поворот — Дьюс становится мужчиной по вызову.Но его клиентки не простые женщины, а такие, к которым нормальный мужчина никогда не ляжет в постель. Находясь в ситуации, когда нельзя отказать, Дьюс принимается ублажать этих весьма «необычных» женщин...

Качество: HDTV-AVC
Формат: MKV
Видео кодек: H.264
Аудио кодек: AC3
Видео: 720 x 400 (16:9), 23,976fps, AVC MPEG-4 (H.264), ~1966 kbps avg,0.285 bit/pixel
Аудио: 48 kHz, AC3 Dolby Digital, 3/2 (L,C,R,l,r) + LFE ch, ~384 kbps avg
Релиз от:






Общее
Уникальный идентификатор : 211970007900378131690209460701122757212 (0x9F77F044FDF0E60B9A4F805B0E3B825C)
Полное имя : E:ТоррентыPiratbitDeuce Bigalow. Male Gigolo .mkv
Формат : Matroska
Версия формата : Version 1
Размер файла : 1,45 Гбайт
Продолжительность : 1 ч. 28 м.
Общий поток : 2353 Кбит/сек
Дата кодирования : UTC 2009-04-09 23:51:50
Программа кодирования : mkvmerge v2.4.0 ('Fumbling Towards Ecstasy') built on Oct 11 2008 20:13:15
Библиотека кодирования : libebml v0.7.7 + libmatroska v0.8.1

Видео
Идентификатор : 2
Формат : AVC
Формат/Информация : Advanced Video Codec
Профиль формата : High@L4.1
Параметр CABAC формата : Да
Параметр ReFrames формата : 3 кадра
Идентификатор кодека : V_MPEG4/ISO/AVC
Продолжительность : 1 ч. 28 м.
Битрейт : 1966 Кбит/сек
Ширина : 720 пикселей
Высота : 400 пикселей
Соотношение сторон : 16:9
Частота кадров : 23,976 кадра/сек
Цветовое пространство : YUV
Субдискретизация насыщенности : 4:2:0
Битовая глубина : 8 бит
Тип развёртки : Прогрессивная
Бит/(Пиксели*Кадры) : 0.285
Размер потока : 1,19 Гбайт (82%)
Библиотека кодирования : x264 core 65 r999kMod cc51047
Настройки программы : cabac=1 / ref=3 / deblock=1:0:0 / analyse=0x3:0x133 / me=umh / subme=9 / psy_rd=1.0:0.0 / mixed_ref=1 / me_range=16 / chroma_me=1 / trellis=1 / 8x8dct=1 / cqm=0 / deadzone=21,11 / chroma_qp_offset=-2 / threads=2 / thread_queue=2 / nr=0 / decimate=1 / mbaff=0 / bframes=3 / b_pyramid=1 / b_adapt=1 / b_bias=0 / direct=3 / wpredb=1 / keyint=250 / keyint_min=25 / scenecut=40(pre) / rc=2pass / bitrate=1966 / ratetol=1.0 / qcomp=0.60 / qpmin=10 / qpmax=51 / qpstep=4 / cplxblur=20.0 / qblur=0.5 / ip_ratio=1.40 / pb_ratio=1.30 / aq=1:1.00
Default : Да
Forced : Нет

Аудио
Идентификатор : 1
Формат : AC-3
Формат/Информация : Audio Coding 3
Расширение режима : CM (complete main)
Параметр Endianness формата : Big
Идентификатор кодека : A_AC3
Продолжительность : 1 ч. 28 м.
Вид битрейта : Постоянный
Битрейт : 384 Кбит/сек
Каналы : 6 каналов
Расположение каналов : Front: L C R, Side: L R, LFE
Частота : 48,0 КГц
Битовая глубина : 16 бит
Метод сжатия : С потерями
Размер потока : 243 Мбайт (16%)
Default : Да
Forced : Нет

pb.wtf



Скачать Мужчина по вызову через торрент http://pic.kartinco.top/images/1/uo78luolqe.png Скачать фильм Мужчина по вызову через торрент бесплантно в хорошем качестве Описание: Дьюс Бигалоу всегда был уверен в том, что создан для большего, чем просто чистить аквариумы. И вот судьба делает крутой поворот — ... 10 10 4
Info! Золотая раздача, скачанное не засчитывается.
Торрент: Зарегистрирован [2012-10-18 09:12] · скачан: 56 раз
Статус: √ проверено
Размер: 1.45 GB
Как cкачать? Как скачать Мужчина по вызову через торрент | qTorrent

% Раздел Тема Автор DL S | L
Фильмы до 2000 г. [ 1.45 GB ] Мужчина по вызову / Deuce Bigalow: Male Gigolo [1999 DVDRip MVO ] Alex_E Скачать
1 | 0
Фильмы до 2000 г. [ 781 MB ] Мужчина по вызову / Deuce Bigalow: Male Gigolo [1999 DVDRip] Lyfe Скачать
1 | 0
Фильмы до 2000 г. [ 1.46 GB ] Мужчина по вызову / Deuce Bigalow: Male Gigolo [1999 HDRip] MOL0T Скачать
2 | 0


Последний раз редактировалось: lev1244v (2012-10-18 10:01), всего редактировалось 1 раз


>> Регистрируемся здесь <<






Отзывы и комментарии о схеме читаем и пишем здесь: ---> Отзывы и комментарии о схеме

Новые благодарочки в телеграм довольных пользователей:
скриншот   скриншот   скриншот   скриншот   скриншот

18-10-2012 09:16 Мужчина по вызову Скачать торрент  

Приятного просмотра! Есть над чем посмеятьсяpb.wtf



    Дорогой пользователь! Огромная просьба, поблагодарите релизера, оцените раздачу и оставьте свои комментарий, если Вы скачали Мужчина по вызову через торрент бесплатно! Внесите свою лепту в развитие PiratBit!
    Комментировать посты могут только пользователи прошедшие не сложную регистрацию
    Показать сообщения:    

    Мужчина по вызову через торрент
    Скачать бесплатно Мужчина по вызову
    Мужчина по вызову скачать торрент
    Мужчина по вызову смотреть онлайн
    Cкачать фильм Мужчина по вызову бесплатно
    Мужчина по вызову скачать торрент в хорошем качестве
    Мужчина по вызову смотреть онлайн бесплатно в хорошем качестве


    Вы не можете начинать темы
    Вы не можете отвечать на сообщения
    Вы не можете редактировать свои сообщения
    Вы не можете удалять свои сообщения
    Вы не можете голосовать в опросах
    Вы не можете прикреплять файлы к сообщениям
    Вы можете скачивать файлы