Ссылка на приватное зеркало нашего сайта всего за 1$. Внимание количество ограничено!!!

2 сезон

iTunes

1 сезон

1

2 сезон

2 сезон

iTunes

1 сезон

RePack

30

Ultimate

ВАЖНО

ИГРА 18+

pack

RePack

MK11
pack

Забери бонус

RePack

jed

!!Акция!!

Alien_Rage

RePack

fifa19

RePack

Assassins Creed: Odyssey

RePack

NEED FOR SPEED™ PAYBACK

4 сезон

9 сезон

Бесстыжие 9 сезон

Все сериалы

все сериалы на PB.wtf

RePack

FAR CRY 5
  

Рыжий пес / Red Dog (Крив Стендерс) [2011 г., Комедия, семейный, драма, Blu-Ray Remux (1080p)][ лицензия ] pb.wtf

Рыжий пес через торрент pb.wtf

Размер: 17.51 GB | Добавлен: 8 лет 1 мес. назад | Торрент скачан:3 раза
Скачать  

18-10-2012 12:50 Рыжий пес Скачать торрент  


Рыжий пес / Red Dog
«He's been everywhere mate»

Год выпуска: 2011
Страна: Австралия
Жанр: Комедия, семейный, драма
Продолжительность: 01:32:18
Перевод: Профессиональный многоголосый [Лицензия]
Режиссер: Крив Стендерс
Продюссер: Джули Райан

Сценарий: Луи де Берньер

Бюджет: AUD 8 500 000
Премьера в мире: 4 августа 2011

В ролях: Джош Лукас, Рэйчел Тейлор, Ноа Тейлор, Киша Касл-Хьюз, Люк Форд, Билл Хантер, Джон Батчелор, Тиффани Линдэлл-Найт, Имон Фэррен, Артур Энджел ...
Описание: В далеком шахтерском поселке, где живут суровые и не слишком общительные люди, однажды появляется энергичный рыжий пес из породы келпи. Только ему под силу расшевелить провинциальное сонное царство. Рыжий не подчиняется никому, но его любят все. С помощью неутомимого пса многим поселенцам суждено обрести друзей, счастье, надежду и радость. А некоторым — найти любовь всей своей жизни.
Качество: BD-Remux 1080p
Формат: BDAV
Видео: 1920х1080 at 23.976 fps, MPEG-4 AVC, ~ 21.6kbps avg
Аудио#1: Russian: 48 kHz, DTS, (6 ch), 1 561 Kbps / 1 510 Kbps
Аудио#2: Russian: 48.0 KHz, AC3, (2ch), 192 Kbps
Аудио#3: English: 48.0 KHz, DTS, (6 ch), 2 275 Kbps / 1 510 Kbps
Аудио#4: English: 48.0 KHz , AC3, (2 ch), 448 Kbps
Субтитры: Русские, Ukrainian, English

• Рыжему псу Коко благодарные жители городка Дампьер поставили памятник.






General #1
ID : 1 (0x1)
Format : BDAV
Format/Info : Blu-ray Video
File size : 17.5 GiB
Duration : 1h 32mn
Overall bit rate : 27.2 Mbps
Maximum Overall bit rate : 35.5 Mbps
Video #4113
ID : 4113 (0x1011)
Menu ID : 1 (0x1)
Format : AVC
Format/Info : Advanced Video Codec
Format profile : High@L4.1
Format settings, CABAC : Yes
Format settings, ReFrames : 4 frames
Codec ID : 27
Duration : 1h 32mn
Bit rate mode : Variable
Bit rate : 21.6 Mbps
Maximum bit rate : 35.0 Mbps
Width : 1 920 pixels
Height : 1 080 pixels
Display aspect ratio : 16:9
Frame rate : 23.976 fps
Standard : NTSC
Color space : YUV
Chroma subsampling : 4:2:0
Bit depth : 8 bits
Scan type : Progressive
Bits/(Pixel*Frame) : 0.434
Stream size : 13.9 GiB (79%)
Color primaries : BT.709-5, BT.1361, IEC 61966-2-4, SMPTE RP177
Transfer characteristics : BT.709-5, BT.1361
Matrix coefficients : BT.709-5, BT.1361, IEC 61966-2-4 709, SMPTE RP177
Audio #4352
ID : 4352 (0x1100)
Menu ID : 1 (0x1)
Format : DTS
Format/Info : Digital Theater Systems
Format profile : MA / Core
Muxing mode : Stream extension
Codec ID : 134
Duration : 1h 32mn
Bit rate mode : Variable
Bit rate : 1 561 Kbps / 1 510 Kbps
Channel(s) : 6 channels
Channel positions : Front: L C R, Side: L R, LFE
Sampling rate : 48.0 KHz
Bit depth : 16 bits
Compression mode : Lossless / Lossy
Language : Russian
Audio #4353
ID : 4353 (0x1101)
Menu ID : 1 (0x1)
Format : AC-3
Format/Info : Audio Coding 3
Mode extension : CM (complete main)
Codec ID : 129
Duration : 1h 32mn
Bit rate mode : Constant
Bit rate : 192 Kbps
Channel(s) : 2 channels
Channel positions : Front: L R
Sampling rate : 48.0 KHz
Bit depth : 16 bits
Compression mode : Lossy
Stream size : 127 MiB (1%)
Language : Russian
Audio #4354
ID : 4354 (0x1102)
Menu ID : 1 (0x1)
Format : DTS
Format/Info : Digital Theater Systems
Format profile : MA / Core
Muxing mode : Stream extension
Codec ID : 134
Duration : 1h 32mn
Bit rate mode : Variable
Bit rate : 2 275 Kbps / 1 510 Kbps
Channel(s) : 6 channels
Channel positions : Front: L C R, Side: L R, LFE
Sampling rate : 48.0 KHz
Bit depth : 16 bits
Compression mode : Lossless / Lossy
Language : English
Audio #4355
ID : 4355 (0x1103)
Menu ID : 1 (0x1)
Format : AC-3
Format/Info : Audio Coding 3
Mode extension : CM (complete main)
Codec ID : 129
Duration : 1h 32mn
Bit rate mode : Constant
Bit rate : 448 Kbps
Channel(s) : 2 channels
Channel positions : Front: L R
Sampling rate : 48.0 KHz
Bit depth : 16 bits
Compression mode : Lossy
Stream size : 296 MiB (2%)
Language : English

pb.wtf



Скачать Рыжий пес через торрент http://pic.kartinco.top/images/1/gomvpuwhp3.jpg Скачать фильм Рыжий пес через торрент бесплантно в хорошем качестве Описание: В далеком шахтерском поселке, где живут суровые и не слишком общительные люди, однажды появляется энергичный рыжий пес из породы ... 10 10 1
Info! Золотая раздача, скачанное не засчитывается.
Торрент: Зарегистрирован [2012-10-18 12:50] · скачан: 3 раз
Статус: √ проверено
Размер: 17.51 GB
Как cкачать? Как скачать Рыжий пес через торрент | qTorrent

% Раздел Тема Автор DL S | L
Фильмы 2011 [ 1.37 GB ] Рыжий пес / Red Dog [2011 HDRip лицензия] makarevich Скачать
1 | 0
Фильмы [HD 720p, 1080p] (Хороший звук DUB, MVO) [ 4.86 GB ] Рыжий пес / Red Dog [2011 BDRip 720p] kostantin Скачать
1 | 0
Фильмы [HD 720p, 1080p] (Хороший звук DUB, MVO) [ 7.77 GB ] Рыжий пес / Red Dog [2011 BDRip | НТВ ~Relizer~ Скачать
1 | 0
Фильмы 2011 [ 690 MB ] Рыжий пёс / Red Dog [2011 HDRip] MVO Просто Скачать
1 | 0


Последний раз редактировалось: Zclasss (2012-10-18 14:07), всего редактировалось 3 раз(а)

28-11-2019 20:33  

Отключить всю рекламу на сайте

18-10-2012 13:10 Рыжий пес Скачать торрент  

Zclasss
Укажи битрейт согласно МИ. Перезалей скриншоты. Они не кликабельны на увеличение.pb.wtf



18-10-2012 14:20 Рыжий пес Скачать торрент  

-=Cherry=- писал(а):

Zclasss
Укажи битрейт согласно МИ. Перезалей скриншоты. Они не кликабельны на увеличение.

Исправленоpb.wtf



    Дорогой пользователь! Огромная просьба, поблагодарите релизера, оцените раздачу и оставьте свои комментарий, если Вы скачали Рыжий пес через торрент бесплатно! Внесите свою лепту в развитие PiratBit!
    Комментировать посты могут только пользователи прошедшие не сложную регистрацию
    Показать сообщения:    

    Рыжий пес через торрент
    Скачать бесплатно Рыжий пес
    Рыжий пес скачать торрент
    Рыжий пес смотреть онлайн
    Cкачать фильм Рыжий пес бесплатно
    Рыжий пес скачать торрент в хорошем качестве
    Рыжий пес смотреть онлайн бесплатно в хорошем качестве


    Вы не можете начинать темы
    Вы не можете отвечать на сообщения
    Вы не можете редактировать свои сообщения
    Вы не можете удалять свои сообщения
    Вы не можете голосовать в опросах
    Вы не можете прикреплять файлы к сообщениям
    Вы можете скачивать файлы