Ссылка на приватное зеркало нашего сайта всего за 1$. Внимание количество ограничено!!!

2 сезон

iTunes

1 сезон

1

iTunes

iTunes

iTunes

1 сезон

RePack

30

ИГРА 18+

pack

ВАЖНО

!!Акция!!

Alien_RageХит недели

RePack

MK11
pack

Забери бонус

RePack

jed

!!Акция!!

Alien_Rage

RePack

fifa19

RePack

Assassins Creed: Odyssey

RePack

NEED FOR SPEED™ PAYBACK

4 сезон

9 сезон

Бесстыжие 9 сезон

Все сериалы

все сериалы на PB.wtf

RePack

FAR CRY 5
  

Опасные сны / In My Sleep (Аллен Вульф) [2010 г., триллер, драма, детектив, BDRip 720p, Профессиональный двухголосый] pb.wtf

Опасные сны через торрент pb.wtf

Размер: 4.6 GB | Добавлен: 8 лет назад | Торрент скачан:85 раз
Скачать  

19-10-2012 07:35 Опасные сны Скачать торрент  

Опасные сны / In My Sleep
Год выпуска: 2010
Страна: США
Жанр: триллер, драма, детектив
Продолжительность: 01:44:38
Перевод: Профессиональный двухголосый
Субтитры: Английские
Режиссер: Аллен Вульф
Продюссер: Дэвид Остин, Аллен Вульф, Брэд Миллер
Сценарий: Аллен Вульф
Мировой рейтинг IMDB 5.20 (1 011)

В ролях: Филип Уинчестер, Тим Драксл, Лейси Чаберт, Эбигейл Спенсер, Келли Овертон, Эми Акино, Тони Хейл, Кевин Килнер, Эйдан Митчел, Майкл Бадалукко
Описание: Маркус просыпается на кладбище и не может понять, как он туда попал. В его голове множество вопросов: Где я был прошлой ночью? С кем? Маркус страдает парасомнией, редким расстройством сна, в результате которого во сне делает то, что не может вспомнить на следующий день. Его ситуация принимает ужасающий оборот, когда Маркус просыпается весь в крови и обнаруживает рядом с собой нож. Вскоре жену его лучшего друга находят мертвой, ее закололи ножом. Маркус в ужасе связывает эти два события. Возможно ли, что он убил ее во время своего сна, чтобы скрыть тайну, существовавшую между ними? Загадочные телефонные звонки заставляют Маркуса думать, что кто-то наблюдает за ним. Он исследует свои собственные ночные поступки, в отчаянии пытаясь понять, что происходит, когда он засыпает ночью. Его попытки узнать правду заканчиваются шокирующим открытием.
Качество: BDRip 720p
Формат: MKV
Видео кодек: H.26x
Аудио кодек: AC3
Видео: MPEG-4 AVC, 4465 Кбит/с, 1280x720, 23.976 кадр/с
Аудио#1: AC-3 at 320 Кбит/сек : 6 каналов, 48,0 КГц Language : Русский
Аудио#2: DTS at 1510 Кбит/сек : 6 каналов, 48,0 КГц Languaе : aнглийский
Общее
Уникальный идентификатор : 223333384948133753987745983842010730357 (0xA804720375CA68D3B64601560F670F75)
Полное имя : C:UsersСлавонDesktopНовая папкаIn.My.Sleep.2009.BDRip_720p.mkv
Формат : Matroska
Версия формата : Version 2
Размер файла : 4,60 Гбайт
Продолжительность : 1 ч. 44 м.
Общий поток : 6291 Кбит/сек
Дата кодирования : UTC 2010-08-31 04:18:12
Программа кодирования : mkvmerge v4.0.0 ('The Stars were mine') сборка от Jun 6 2010 16:18:42
Библиотека кодирования : libebml v1.0.0 + libmatroska v1.0.0

Видео
Идентификатор : 1
Формат : AVC
Формат/Информация : Advanced Video Codec
Профиль формата : High@L4.1
Параметр CABAC формата : Да
Параметр ReFrames формата : 5 кадров
Идентификатор кодека : V_MPEG4/ISO/AVC
Продолжительность : 1 ч. 44 м.
Битрейт : 4465 Кбит/сек
Ширина : 1280 пикселей
Высота : 720 пикселей
Соотношение сторон : 16:9
Режим частоты кадров : Постоянный
Частота кадров : 23,976 кадра/сек
Цветовое пространство : YUV
Субдискретизация насыщенности : 4:2:0
Битовая глубина : 8 бит
Тип развёртки : Прогрессивная
Бит/(Пиксели*Кадры) : 0.202
Размер потока : 3,17 Гбайт (69%)
Библиотека кодирования : x264 core 104 r1688 0b36c6d
Настройки программы : cabac=1 / ref=5 / deblock=1:0:0 / analyse=0x3:0x113 / me=umh / subme=7 / psy=1 / psy_rd=1.00:0.15 / mixed_ref=1 / me_range=16 / chroma_me=1 / trellis=1 / 8x8dct=1 / cqm=0 / deadzone=21,11 / fast_pskip=0 / chroma_qp_offset=-3 / threads=12 / sliced_threads=0 / nr=0 / decimate=1 / interlaced=0 / constrained_intra=0 / bframes=3 / b_pyramid=2 / b_adapt=1 / b_bias=0 / direct=1 / weightb=1 / open_gop=0 / weightp=2 / keyint=250 / keyint_min=23 / scenecut=40 / intra_refresh=0 / rc_lookahead=40 / rc=2pass / mbtree=1 / bitrate=4465 / ratetol=1.0 / qcomp=0.60 / qpmin=10 / qpmax=51 / qpstep=4 / cplxblur=20.0 / qblur=0.5 / ip_ratio=1.40 / aq=1:1.00
Язык : English
Default : Нет
Forced : Нет

Аудио #1
Идентификатор : 2
Формат : AC-3
Формат/Информация : Audio Coding 3
Расширение режима : CM (complete main)
Параметр Endianness формата : Big
Идентификатор кодека : A_AC3
Продолжительность : 1 ч. 44 м.
Вид битрейта : Постоянный
Битрейт : 320 Кбит/сек
Каналы : 6 каналов
Расположение каналов : Front: L C R, Side: L R, LFE
Частота : 48,0 КГц
Битовая глубина : 16 бит
Метод сжатия : С потерями
Размер потока : 240 Мбайт (5%)
Язык : Russian
Default : Да
Forced : Нет

Аудио #2
Идентификатор : 3
Формат : DTS
Формат/Информация : Digital Theater Systems
Идентификатор кодека : A_DTS
Продолжительность : 1 ч. 44 м.
Вид битрейта : Постоянный
Битрейт : 1510 Кбит/сек
Каналы : 6 каналов
Расположение каналов : Front: L C R, Side: L R, LFE
Частота : 48,0 КГц
Битовая глубина : 24 бит
Метод сжатия : С потерями
Задержка видео : 11 мс.
Размер потока : 1,10 Гбайт (24%)
Заголовок : English DTS 1509kbps
Язык : English
Default : Нет
Forced : Нет

Текст
Идентификатор : 4
Формат : UTF-8
Идентификатор кодека : S_TEXT/UTF8
Идентификатор кодека/Информация : UTF-8 Plain Text
Язык : English
Default : Нет
Forced : Нет

Меню
00:00:00.000 : en:00:00:00.000
00:04:19.926 : en:00:04:19.926
00:12:07.352 : en:00:12:07.352
00:22:03.030 : en:00:22:03.030
00:27:47.541 : en:00:27:47.541
00:31:22.672 : en:00:31:22.672
00:40:47.528 : en:00:40:47.528
00:43:51.712 : en:00:43:51.712
00:46:21.946 : en:00:46:21.946
00:57:58.809 : en:00:57:58.809
01:04:50.762 : en:01:04:50.762
01:10:36.566 : en:01:10:36.566
01:15:38.159 : en:01:15:38.159
01:24:12.631 : en:01:24:12.631
01:30:30.508 : en:01:30:30.508
01:37:54.202 : en:01:37:54.202
pb.wtf



Скачать Опасные сны через торрент http://pic.kartinco.top/images/1/liwuzs5qej.jpg Скачать фильм Опасные сны через торрент бесплантно в хорошем качестве Описание: Маркус просыпается на кладбище и не может понять, как он туда попал. В его голове множество вопросов: Где я был прошлой ночью? С ... 5 10 1
Info! Золотая раздача, скачанное не засчитывается.
Торрент: Зарегистрирован [2012-10-19 07:35] · скачан: 85 раз
Статус: √ проверено
Размер: 4.6 GB
Как cкачать? Как скачать Опасные сны через торрент | qTorrent

% Раздел Тема Автор DL S | L
Фильмы 2009 [ 1.78 GB ] Опасные сны / In My Sleep [2009 BDRip] -=BIGBOSS=- Скачать
1 | 0
Фильмы 2009 [ 1.37 GB ] Опасные сны / In My Sleep [2009 НDRip] [ лицензия ] MIO2008 Скачать
1 | 0

28-11-2019 20:33  

Отключить всю рекламу на сайте

    Дорогой пользователь! Огромная просьба, поблагодарите релизера, оцените раздачу и оставьте свои комментарий, если Вы скачали Опасные сны через торрент бесплатно! Внесите свою лепту в развитие PiratBit!
    Комментировать посты могут только пользователи прошедшие не сложную регистрацию
    Показать сообщения:    

    Опасные сны через торрент
    Скачать бесплатно Опасные сны
    Опасные сны скачать торрент
    Опасные сны смотреть онлайн
    Cкачать фильм Опасные сны бесплатно
    Опасные сны скачать торрент в хорошем качестве
    Опасные сны смотреть онлайн бесплатно в хорошем качестве


    Вы не можете начинать темы
    Вы не можете отвечать на сообщения
    Вы не можете редактировать свои сообщения
    Вы не можете удалять свои сообщения
    Вы не можете голосовать в опросах
    Вы не можете прикреплять файлы к сообщениям
    Вы можете скачивать файлы